Browse Collections Artists Sources   Search Dates

Add Show    List Management    Help


Grateful Dead 03/22/73
Utica Memorial Auditorium, Utica, NY
Comments Add Comment    Source Collectors    Add to Collection    Add to Want List    History
Source # 136267 Other Sources
Entered by Matt Vernon
Checksums ffp , flac-md5
Disc Counts 0 / 0
Media Size Compressed: 1.03 GB (1108923682 bytes)
Date Circulated
Date Added
07/01/2016
07/01/2016
Source Summary flac16; Soundboard > PCM copy; Sony L-750ESX-HFB Dynamicron SUPER HIFI VIDEO CASSETTE-> Sony SLO-1800 STEREO VIDEOCASSETTE RECORDER-> Sony PCM-601ESD DIGITAL AUDIO PROCESSOR-> SP/DIF-> Mytek Stereo 192 Sample Rate Converter-> Upsampled to 44.1kHz/24bit-> SP/DIF-> RME FIREFACE 800-> FireWire 400-> Lenovo K450e Desktop PC-> WaveLab 6.11; tracked with Audacity-> flac level 8-> tagged with Tag&Rename and checksums with TLH by Norm; Wavelab 7.1 for Minor Edits by Jamie Waddell 16 bit 44.1kHz 
  Archive
Source Information - Download Text | Download Zip
Grateful Dead
Thursday, March 22, 1973
Memorial Auditorium
Utica, NY

Soundboard > PCM copy

Sony L-750ESX-HFB Dynamicron EXCELLENT SUPER HIFI VIDEO CASSETTE-> Sony SLO-1800 STEREO

VIDEOCASSETTE RECORDER-> Sony PCM-601ESD DIGITAL AUDIO PROCESSOR-> SP/DIF-> Mytek Stereo

192 Sample Rate Converter-> Upsampled to 44.1kHz/24bit-> SP/DIF-> RME FIREFACE 800->

FireWire 400-> Lenovo K450e Desktop PC-> WaveLab 6.11

tracked with Audacity-> flac level 8-> tagged with Tag&Rename and checksums with TLH by Norm

This recording was gratefully supplied by PO and Stucco TINA Holmes.
Thanks to spamjam for the equipment generosity.

Wavelab 7.1 for Minor Edits by Jamie Waddell
16 bit 44.1kHz  a project **GEMS** 2016

- shnid 1822 and 83397 are both incomplete in some way, and long were comments for a complete source.
83397 notes that the Betty 10 inch Middle reel of the show unplayable due to mold and water damage.
This PCM transfer also lacked the middle portion, the rest was an upgrade.
1822 had most of the middle reel, but was not equal in sound.  1822 missing middle reel was corrected and mastered
and made to fit into the sound of this Beta.  This now offers the most complete source available to date.
China Rider through part of The Other One is provided by shnid 1822, the rest of the show is a new source.

Set 1

01. crowd
02. Promised Land
03. Sugaree
04. Mexicali Blues
05. They Love Each Other
06. Looks Like Rain
07. Deal
08. BIODTL
09. Bird Song
10. Jack Straw
11. Phil' Fire Aisle talk
12. Box Of Rain
13. You Ain't Woman Enough
14. The Race is On
15. Row Jimmy
16. El Paso
17. // China Cat Sunflower->
18. I Know You Rider
19. Playin' In The Band

Set 2

20. Big River
21. /Wave That Flag
22. Me & My Uncle
23. Here Comes Sunshine
24. Truckin'->
25. The Other One->
26. Eyes Of The World->
27. China Doll
28. Sugar Magnolia

Encore
29. One More Saturday Night

originally shared at www.shnflac.net

    length     expanded size    cdr  WAVE problems  fmt   ratio  filename
     1:57.71       20805836 B   ---   --   ---xx   flac  0.3801  gd73-03-22s1t01.flac
     3:36.60       38243564 B   ---   --   ---xx   flac  0.5073  gd73-03-22s1t02.flac
     8:44.38       92523020 B   ---   --   ---xx   flac  0.4685  gd73-03-22s1t03.flac
     4:08.31       43820156 B   ---   --   ---xx   flac  0.5002  gd73-03-22s1t04.flac
     6:20.23       67086140 B   ---   --   ---xx   flac  0.4609  gd73-03-22s1t05.flac
     8:04.18       85419980 B   ---   --   ---xx   flac  0.4602  gd73-03-22s1t06.flac
     5:49.72       61732988 B   ---   --   ---xx   flac  0.4975  gd73-03-22s1t07.flac
     3:50.61       40715516 B   ---   --   ---xx   flac  0.5019  gd73-03-22s1t08.flac
    13:11.54      139659452 B   ---   --   ---xx   flac  0.4947  gd73-03-22s1t09.flac
     4:54.60       52002764 B   ---   --   ---xx   flac  0.4997  gd73-03-22s1t10.flac
     2:09.66       22910876 B   ---   --   ---xx   flac  0.4145  gd73-03-22s1t11.flac
     5:09.19       54552332 B   ---   --   ---xx   flac  0.5045  gd73-03-22s1t12.flac
     3:18.18       34969580 B   ---   --   ---xx   flac  0.5268  gd73-03-22s1t13.flac
     3:42.37       39247868 B   ---   --   ---xx   flac  0.4946  gd73-03-22s1t14.flac
     8:40.54       91855052 B   ---   --   ---xx   flac  0.4861  gd73-03-22s1t15.flac
     4:17.58       45471260 B   ---   --   ---xx   flac  0.5048  gd73-03-22s1t16.flac
     6:57.47       73669388 B   ---   --   ---xx   flac  0.5159  gd73-03-22s1t17.flac
     6:11.63       65592620 B   ---   --   ---xx   flac  0.4867  gd73-03-22s1t18.flac
    14:54.58      157838060 B   ---   --   ---xx   flac  0.4872  gd73-03-22s1t19.flac
     5:11.14       54893372 B   ---   --   ---xx   flac  0.4997  gd73-03-22s2t01.flac
     6:36.51       69974396 B   ---   --   ---xx   flac  0.5150  gd73-03-22s2t02.flac
     3:28.54       36818252 B   ---   --   ---xx   flac  0.5125  gd73-03-22s2t03.flac
     9:23.38       99402620 B   ---   --   ---xx   flac  0.5280  gd73-03-22s2t04.flac
    13:23.39      141740972 B   ---   --   ---xx   flac  0.5343  gd73-03-22s2t05.flac
    19:09.38      202773020 B   ---   --   ---xx   flac  0.5134  gd73-03-22s2t06.flac
    15:07.06      160008956 B   ---   --   ---xx   flac  0.5120  gd73-03-22s2t07.flac
     7:57.52       84265148 B   ---   --   ---xx   flac  0.3898  gd73-03-22s2t08.flac
     9:17.71       98421836 B   ---   --   ---xx   flac  0.5223  gd73-03-22s2t09.flac
     4:42.05       49756604 B   ---   --   ---xx   flac  0.5184  gd73-03-22s2t10.flac
   210:20.01     2226171628 B                            0.4963  (29 files)


Show Checksums
ffp
gd73-03-22s1t01.flac:b33f1a2d60ab93a2c6dd457eabdd80bf
gd73-03-22s1t02.flac:82b4732b38d51858ce4cf2f23fa74d08
gd73-03-22s1t03.flac:7750645da31ebe707f280f1b9b2f41b2
gd73-03-22s1t04.flac:a7169816606033b1615980d9bf220dd0
gd73-03-22s1t05.flac:c30b509a95e487a2998005215db0339d
gd73-03-22s1t06.flac:d5f8f2879b970abb3f183e063e348d8a
gd73-03-22s1t07.flac:77481914c3b6f3d121dc4724a05f9f18
gd73-03-22s1t08.flac:f285d77dfe6de456fb239082737d557e
gd73-03-22s1t09.flac:7a60db59eab051f158049c634d552849
gd73-03-22s1t10.flac:868418b5dc8b789a5859f0a8879ece6d
gd73-03-22s1t11.flac:b3aa04a5bbd52b1270f309398610211b
gd73-03-22s1t12.flac:5c543311b3ca1847e8c164738ea202e7
gd73-03-22s1t13.flac:bf9e661a96b8076256d3c914256528a9
gd73-03-22s1t14.flac:5a55503aeb143f1decf8cae7b8739351
gd73-03-22s1t15.flac:d2847f1fa17d15ac0e250a7677c5c9af
gd73-03-22s1t16.flac:acb37c1d83d64843d2b7204bad2cbeab
gd73-03-22s1t17.flac:4149a43cc7d7933fb83ae216475438fe
gd73-03-22s1t18.flac:fa8729cbfae3b38ece014f88705b2f26
gd73-03-22s1t19.flac:788f2dc0e5f6d948a0945acf3980c10a
gd73-03-22s2t01.flac:c22a91703a8084eeb037445d123b52cf
gd73-03-22s2t02.flac:9fb7db117cecfbb31c2582afb261c60e
gd73-03-22s2t03.flac:e898371dca20d4b91b37aa377ed582ee
gd73-03-22s2t04.flac:bf956b2bbfba22a8cdff2c464eeb6560
gd73-03-22s2t05.flac:8696e19a551042f85ae767b7a54b7d85
gd73-03-22s2t06.flac:72f8dee7cd2ee6f4dc0bb425bcf1d550
gd73-03-22s2t07.flac:26f26d4d58040092b40bd0ba3c52487d
gd73-03-22s2t08.flac:bbcd5b926a4378aa20c733651a3d0764
gd73-03-22s2t09.flac:3ca9edef6bed4a4a6650df24501e9c01
gd73-03-22s2t10.flac:6a15dbaef0f68b7fde81bc30da3275e0
flac-md5
56168e715d2181908a95164a16e4cbb7 *gd73-03-22s1t01.flac
b0777189d03b1ee434aebbeafd0056dc *gd73-03-22s1t02.flac
5bb97744361f0b581c636a6062a58fe0 *gd73-03-22s1t03.flac
27bce51b8f2f1ddcbaa95a56c941461f *gd73-03-22s1t04.flac
02ccc40f6f72cc5dff69e4f5367da5ad *gd73-03-22s1t05.flac
324857974afcf09f3a8857bc0db0ee92 *gd73-03-22s1t06.flac
9c2775a3398cf56a59243ef437d23269 *gd73-03-22s1t07.flac
c43ef996e32ce768f26059f27f67e8ae *gd73-03-22s1t08.flac
fd45afa49570a4092998e4f41c24577e *gd73-03-22s1t09.flac
e6d34d5dd8fd99167d002a6338793bff *gd73-03-22s1t10.flac
65c2c46e099e7805ca515ba10dc819a4 *gd73-03-22s1t11.flac
e7b80ca1c88bbf2d7d137beae7818de7 *gd73-03-22s1t12.flac
8093939b1bf3e33281094a76f40f51a4 *gd73-03-22s1t13.flac
d7e205f3215916d81e0ea38ab3a9d98e *gd73-03-22s1t14.flac
c73e492f7467695247ec40a8aebc4c2e *gd73-03-22s1t15.flac
867caedade9d21745a8ba6ef11929747 *gd73-03-22s1t16.flac
e3c9d00993aeb45e3520654ab3a19705 *gd73-03-22s1t17.flac
b4eeb4267676d0f0c45fb61e96422970 *gd73-03-22s1t18.flac
bc504a0ca9c0bccb2a2b18a28967424c *gd73-03-22s1t19.flac
f1b4d59fee12776e314eb7208b7ff242 *gd73-03-22s2t01.flac
dae370f025a288b926de51f8020436f0 *gd73-03-22s2t02.flac
791328b3478627c8c2114e163a282771 *gd73-03-22s2t03.flac
07d53eb0c3487108e01dbcd8aeb84016 *gd73-03-22s2t04.flac
d1d39fb4c73e5bc3f4b9529a987eec74 *gd73-03-22s2t05.flac
f44e9b9a6971e1c6d80c3332ec9cdfb4 *gd73-03-22s2t06.flac
bed4a168d33d9855013c849964181ffe *gd73-03-22s2t07.flac
a585cab45cd6bfc4f7bef549f17999c7 *gd73-03-22s2t08.flac
4d8617f6f36d070c2594d66839fbfc2e *gd73-03-22s2t09.flac
51b00c1ddc4444565004c967c6821230 *gd73-03-22s2t10.flac

Comments
Add Comment
Other Sources (comments)
MSR> DATs> CDRx1> EAC> SHN;... (2) flac 16; Source: 10"... (1)
Date User Comment