Browse Collections Artists Sources   Search Dates

Add Show    List Management    Help


Grateful Dead 08/03/82
Starlight Theater, Kansas City, MO
Comments Add Comment    Source Collectors    Add to Collection    Add to Want List    History
Source # 136587 Other Sources
Entered by Matt Vernon
Checksums flac-md5 , ffp
Disc Counts 0 / 0
Media Size Compressed: 1.19 GB (1280117351 bytes)
Uncompressed: 1.86 GB (1994386424 bytes)
Date Circulated
Date Added
07/24/2016
07/26/2016
Source Summary flac16; AUD: FOB, Sennheiser 441's > Sony TC-D5 > MAC > (likely) 1st Gen, from the Brian Schley tape collection; Transfer: TDK-MA > Nakamichi CR-5A > Edirol FA-66 > Wavelab 2448 > R8Brain SRC > Wavelab (adding 16-bit patches) > CD-Wave > TLH > FLAC 1644 tagged. Transferred by Andrew F. 
  Archive
Source Information - Download Text | Download Zip
GRATEFUL DEAD
Starlight Theatre
Kansas City MO
08-03-1982

s1t01 Mississippi Half Step >
s1t02 Franklin's Tower >
s1t03 Minglewood Blues
s1t04 Peggy-O
s1t05 El Paso >
s1t06 Cumberland Blues
s1t07 Althea
s1t08 Cassidy
s1t09 Big Railroad Blues >
s1t10 Women are Smarter
s1t11 Might as Well

s2t01 Shakedown Street >
s2t02 Samson & Delilah
s2t03 To Lay Me Down
s2t04 Let it Grow >
s2t05 Drums >
s2t06 Space >
s2t07 He's Gone >
s2t08 The Other One >
s2t09 Stella Blue >
s2t10 Sugar Magnolia
s2t11 Encore: Casey Jones

AUD: FOB, Sennheiser 441's > Sony TC-D5 > MAC > (likely) 1st Gen,
from the Brian Schley tape collection.

Transfer: TDK-MA > Nakamichi CR-5A > Edirol FA-66 > Wavelab 2448 >
R8Brain SRC > Wavelab (adding 16-bit patches) > CD-Wave > TLH >
FLAC 1644 tagged. Transferred by Andrew F. 07/2016

Here's the same recording as found on ID-5984, this version without
the aggressive noise reduction & clipping found on that one. Patches
from current archive sources were inserted making the show complete,
most notably the complete tracks for Althea, Drums, and Casey Jones.
Thanks Jon Pasternak & Charlie McGuth for organizing this project!

    length     expanded size    cdr  WAVE problems  fmt   ratio  filename
     8:45.11       92635916 B   ---   --   ---xx   flac  0.6415  gd1982-08-03s1t01.flac
    11:27.35      121269164 B   ---   --   ---xx   flac  0.6489  gd1982-08-03s1t02.flac
     6:57.35       73641164 B   ---   --   ---xx   flac  0.6470  gd1982-08-03s1t03.flac
     7:45.27       82089548 B   ---   --   ---xx   flac  0.6312  gd1982-08-03s1t04.flac
     4:45.34       50354012 B   ---   --   ---xx   flac  0.6458  gd1982-08-03s1t05.flac
     5:49.45       61669484 B   ---   --   ---xx   flac  0.6568  gd1982-08-03s1t06.flac
     8:35.28       90911900 B   ---   --   ---xx   flac  0.6289  gd1982-08-03s1t07.flac
     6:16.48       66439340 B   ---   --   ---xx   flac  0.6625  gd1982-08-03s1t08.flac
     5:57.28       63040700 B   ---   --   ---xx   flac  0.6590  gd1982-08-03s1t09.flac
     7:22.71       78135836 B   ---   --   ---xx   flac  0.6575  gd1982-08-03s1t10.flac
     4:30.61       47771516 B   ---   --   ---xx   flac  0.6645  gd1982-08-03s1t11.flac
    14:16.68      151158380 B   ---   --   ---xx   flac  0.6541  gd1982-08-03s2t01.flac
     8:10.10       86459564 B   ---   --   ---xx   flac  0.6676  gd1982-08-03s2t02.flac
     9:24.61       99633116 B   ---   --   ---xx   flac  0.6343  gd1982-08-03s2t03.flac
    13:43.68      145337180 B   ---   --   ---xx   flac  0.6489  gd1982-08-03s2t04.flac
     8:48.43       93240380 B   ---   --   ---xx   flac  0.5777  gd1982-08-03s2t05.flac
     9:31.11      100750316 B   ---   --   ---xx   flac  0.5954  gd1982-08-03s2t06.flac
    12:17.03      130013900 B   ---   --   ---xx   flac  0.6456  gd1982-08-03s2t07.flac
     8:42.45       92186684 B   ---   --   ---xx   flac  0.6504  gd1982-08-03s2t08.flac
    10:40.29      112964252 B   ---   --   ---xx   flac  0.6240  gd1982-08-03s2t09.flac
     9:09.22       96895388 B   ---   --   ---xx   flac  0.6689  gd1982-08-03s2t10.flac
     5:27.45       57788684 B   ---   --   ---xx   flac  0.6317  gd1982-08-03s2t11.flac
   188:26.03     1994386424 B                            0.6419  (22 files)

Show Checksums
flac-md5
74b4d073cd00b66091ed7de41fd97791 *gd1982-08-03s1t01.flac
a6fe33a2c1bd40399b6b4093e1efd91b *gd1982-08-03s1t02.flac
1e6a09a1bdb693766a090612e0f7b6ce *gd1982-08-03s1t03.flac
2d95b30b3797a4e1ba104dee25ba6bed *gd1982-08-03s1t04.flac
43f772691e5077f6c3065c56d47bb1ab *gd1982-08-03s1t05.flac
6a4eaa1080df2498bc4bf222357fad5a *gd1982-08-03s1t06.flac
3c4e3d78f0461b2037a13c1ec473b2e0 *gd1982-08-03s1t07.flac
1160a3c8210e808e0f5544e3a2ba9e63 *gd1982-08-03s1t08.flac
02d5654929a973156724ada17c3c28c7 *gd1982-08-03s1t09.flac
e28a00b8395a8444ff5f8f79faa666fe *gd1982-08-03s1t10.flac
6dfcf34e45804417fe686a9665154d59 *gd1982-08-03s1t11.flac
dcdec39e79a8ea7241b00e66adfc2348 *gd1982-08-03s2t01.flac
54e07b2802771974af399c695f326dca *gd1982-08-03s2t02.flac
82da14c2d8d2e4504513ba5c41f4edcd *gd1982-08-03s2t03.flac
3ce9c7fedb73ed915869a976089c7e49 *gd1982-08-03s2t04.flac
c0535a4a96b8fe7df43ea58d7e227045 *gd1982-08-03s2t05.flac
ed1df224850cf893a726d9a108a7adb9 *gd1982-08-03s2t06.flac
7a7290a8c391923b232da97276205573 *gd1982-08-03s2t07.flac
c6b251090058649f7dbe66ce9325ced5 *gd1982-08-03s2t08.flac
b592e581647368d778eddb8fcdcfd7ee *gd1982-08-03s2t09.flac
1532be526f88ff05edab13391f69b783 *gd1982-08-03s2t10.flac
808a986d2e5799892df21a2da43e8b97 *gd1982-08-03s2t11.flac
ffp
gd1982-08-03s1t01.flac:4046eb0dae88f69058d1b3bb226519d6
gd1982-08-03s1t02.flac:393143cbefdcf986b71bc0e46b4e9ff6
gd1982-08-03s1t03.flac:89c066a1e35b0046f4d75dc76065305e
gd1982-08-03s1t04.flac:3c2f6a91867196dc8de5052cdb406d2f
gd1982-08-03s1t05.flac:6c22663a12cea4c542429abf26002eac
gd1982-08-03s1t06.flac:91f0ac9f3e0621d5f182c5ee408e6187
gd1982-08-03s1t07.flac:60d6e01b7499ef7c0c0e11bda1099f78
gd1982-08-03s1t08.flac:d8badc8032bf96ac4dd9ae4aff09ab15
gd1982-08-03s1t09.flac:29c43492ff869837d289de46686b7fe5
gd1982-08-03s1t10.flac:411d353ff28d98859e79bf5371820b88
gd1982-08-03s1t11.flac:9915eac62da1d42dfa8ffea30e38b441
gd1982-08-03s2t01.flac:96dc478baab8c1d3fbd698c82c0c87ea
gd1982-08-03s2t02.flac:89f4742dd51d81a6fdd9adcd924e3d71
gd1982-08-03s2t03.flac:e231ea4854742155fa3f33b9061a6633
gd1982-08-03s2t04.flac:689cdb7632e921a02e3a93117172c258
gd1982-08-03s2t05.flac:0767e800966432850fb8a2c99b5c3eb9
gd1982-08-03s2t06.flac:c732c1cbdffd0ec1bf99e277e2f056f0
gd1982-08-03s2t07.flac:e4dca6521c4ed1537232b4d2401f52c1
gd1982-08-03s2t08.flac:c2393036cd2717f45f4808c135054491
gd1982-08-03s2t09.flac:7b96778f1d0852a2f525e4099cf0ed21
gd1982-08-03s2t10.flac:0170f26c642e14c1a7e9e76f8f06842c
gd1982-08-03s2t11.flac:f23f78ce88757053f73ab94cac22d712

Comments
Add Comment
Other Sources (comments)
Recording by Paul Hogan. MC... (2) Lineage:SBD>MC>PCM>DAT>CDR... (4) flac16; Sick Bits... (0) flac16; Patch fix of... (5) flac16; Recording... (1) flac16; Set 2 Source... (0) flac24; Aud -> AKG... (0) flac16 44.1khz... (0) flac24 48khz... (0) flac24; Source:... (0)
Date User Comment