Browse Collections Artists Sources   Search Dates

Add Show    List Management    Help


Grateful Dead 06/30/87
Kingswood Music Theater, Maple, ON
Comments Add Comment    Source Collectors    Add to Collection    Add to Want List    History
Source # 136770 Other Sources
Entered by Matt Vernon
Checksums flac-md5 , ffp
Disc Counts 0 / 0
Media Size Compressed: 537 MB (563085312 bytes)
Uncompressed: 916 MB (960495616 bytes)
Date Circulated
Date Added
08/25/2016
08/26/2016
Source Summary flac16; Set 2 only - Audience > unknown > cassette (John) > Sony TC-R303 > Zoom h4n > Audition CC 2015 > shntool > TLH 
  Archive
Source Information - Download Text | Download Zip
Grateful Dead
06/30/87
Kingswood Music Theater
Maple, Ontario Canada

Set 2 only

Source:
Audience > ? > cassette (Maxell XL II)

Transfer:
Sony TC-R303 > Zoom h4n (24/48) > Audition CC 2015 > shntool > TLH

Set 2
s2t01 Scarlet Begonias >
s2t02 Fire On The Mountain
s2t03 Estimated Prophet  >
s2t04 Eyes Of The World >
s2t05 Drums >
s2t06 Space >
s2t07 The Other One >
s2t08 China Doll >
s2t09 Dear Mr. Fantasy >
s2t10 Around and Around >
s2t11 Good Lovin'
Encore
s2t12 crowd
s2t13 Box Of Rain


shnid 8577 used to patch tape flip in Drums (7 seconds)

This was in a collection of tapes being given away on craigslist.
jchastain, 8/25/16



   length     expanded size    cdr  WAVE problems  fmt   ratio  filename
     8:56.18       94592780 B   ---   --   ---xx   flac  0.5831  gd87-06-30s2t01.flac
    10:40.00      112896044 B   ---   --   ---xx   flac  0.6000  gd87-06-30s2t02.flac
    10:46.00      113954444 B   ---   --   ---xx   flac  0.5941  gd87-06-30s2t03.flac
     9:27.67      100176428 B   ---   --   ---xx   flac  0.5850  gd87-06-30s2t04.flac
     7:07.31       75395756 B   ---   --   ---xx   flac  0.5760  gd87-06-30s2t05.flac
     9:33.47      101187788 B   ---   --   ---xx   flac  0.5383  gd87-06-30s2t06.flac
     5:47.40       61304924 B   ---   --   ---xx   flac  0.5868  gd87-06-30s2t07.flac
     4:51.72       51501788 B   ---   --   ---xx   flac  0.5507  gd87-06-30s2t08.flac
     4:51.00       51332444 B   ---   --   ---xx   flac  0.6075  gd87-06-30s2t09.flac
     3:44.63       39661820 B   ---   --   ---xx   flac  0.6112  gd87-06-30s2t10.flac
     8:42.53       92205500 B   ---   --   ---xx   flac  0.6090  gd87-06-30s2t11.flac
     1:11.17       12564428 B   ---   --   ---xx   flac  0.5993  gd87-06-30s2t12.flac
     5:08.49       54446492 B   ---   --   ---xx   flac  0.5993  gd87-06-30s2t13.flac
    90:49.07      961220636 B                            0.5859  (13 files)


Show Checksums
flac-md5
1b7d9e4fe0a44b934f152485a06d0ce2 *gd87-06-30s2t01.flac
dc0d3741e13cca47a4aae2251afd52e7 *gd87-06-30s2t02.flac
494917ae324919744ae5e31a18ab1fc4 *gd87-06-30s2t03.flac
ccb41438b9258a27dfef9010cdd12608 *gd87-06-30s2t04.flac
6d8fb42fdab3fc2a5f8b52cb76df4e45 *gd87-06-30s2t05.flac
74bcd7f84ca25a891599182c9e9956bc *gd87-06-30s2t06.flac
b652e718fc2faea72192b8199d8fd52e *gd87-06-30s2t07.flac
60ce38128a2202bb81845652b3ef6dec *gd87-06-30s2t08.flac
64a3b52315aceec9755dc5bc11771fd4 *gd87-06-30s2t09.flac
05606477383e7dd4e212038cc477dc6c *gd87-06-30s2t10.flac
c7ed1b85710fcb4dd75ca9462608a4c5 *gd87-06-30s2t11.flac
1aff83e26cbc267e50cc8211363bd201 *gd87-06-30s2t12.flac
e5db86b1ee083ae18689bc2943897190 *gd87-06-30s2t13.flac
ffp
gd87-06-30s2t01.flac:571ebb8eff0387ee4d6b76b4acf4bd1b
gd87-06-30s2t02.flac:f1f57985d16647edf1f15f45f6e890da
gd87-06-30s2t03.flac:396cbab06f7de311ecc92e78074d8f20
gd87-06-30s2t04.flac:bbc67851b66899c989f13fe79731e4ef
gd87-06-30s2t05.flac:183ce2c0e27197ae1ac0f88b67e0578a
gd87-06-30s2t06.flac:7af7fda1630c1b57a86e78e5bedfe183
gd87-06-30s2t07.flac:be146d38ab597a68a771d6b87607247d
gd87-06-30s2t08.flac:769d08c48ee4d5378093e98456ca2c21
gd87-06-30s2t09.flac:3653524c13b23452fdda10271731d166
gd87-06-30s2t10.flac:e57576b2219fe7249df42922f69f6fad
gd87-06-30s2t11.flac:a7114b73b4fb8a1f6d18bf38c9b13946
gd87-06-30s2t12.flac:8f4b63c4069fc9f2c89f90a44fd49633
gd87-06-30s2t13.flac:ec023902065458ee30585c10dbe97091

Comments
Add Comment
Other Sources (comments)
AUD (mic. unk) > DAT > CDR... (1) Primary Source: Ultra... (1) Seamless fix of (0) flac16; Sbd > ? >... (0) flac24; Recording... (0) flac16; Recording... (0)
Date User Comment