Browse Collections Artists Sources   Search Dates

Add Show    List Management    Help


Grateful Dead 09/06/80
State Fairgrounds, Lewiston, ME
Comments Add Comment    Source Collectors    Add to Collection    Add to Want List    History
Source # 136807 Other Sources
Entered by Matt Vernon
Checksums flac-md5 , ffp
Disc Counts 2 / 3
Media Size Compressed: 1.16 GB (1246113315 bytes)
Uncompressed: 2.07 GB (2221592328 bytes)
Date Circulated
Date Added
09/06/2016
09/06/2016
Source Summary flac16; Recording by Steve Rolfe & Jim Wise: Master Audience Cassette; 2 NaKamichi 700s> Sony D-5; Transfer and FLAC encoding by David Minches; Master played back on Nakamichi Dragon > Korg MR-1000(DSF [1-bit 5.6448 MHz Stereo]) Korg AudioGate > WAV [24/96] > Adobe Audition 3.0> FLAC encoding 
  Archive
Source Information - Download Text | Download Zip
Grateful Dead
9/6/1980
Maine State Fairgrounds
Lewiston, ME

Set 1 - Disc 1:
01. Tuning
02. Alabama Getaway >
03. Greatest Story Ever Told
04. Sugaree
05. Me & My Uncle >
06. Mexicali Blues
07. Tennessee Jed
08. Feel Like a Stranger
09. Friend of the Devil
10. Far From Me >

Set 2 - Disc 2:
01. Little Red Rooster
02. China Cat Sunflower >
03. I Know You Rider >
04. The Promised Land
05. Tuning
06. Shakedown Street >
07. Lost Sailor >
08. Saint of Circumstance
09. Althea
10. Playin' in the Band >

Set 2 - Disc 3:
01. Uncle John's Band >
02. Drums >
03. Space >
04. Not Fade Away >
05. The Wheel >
06. Uncle John's Band Reprise >
07. Playin' in the Band Reprise >
08. Sugar Magnolia
09. One More Saturday Night >
10. Brokedown Palace

Recording by Steve Rolfe & Jim Wise:
Master Audience Cassette; 2 NaKamichi 700s> Sony D-5

Transfer and FLAC encoding by David Minches: February 20 , 2014

Master played back on Nakamichi Dragon > Korg MR-1000(DSF [1-bit 5.6448 MHz Stereo])
Korg AudioGate > WAV [24/96] > Adobe Audition 3.0> FLAC encoding

Steve Rolfe and myself taped this show together, my deck (Sony tcd-5) was patched out of Steve's D5,
same signal but two separate cassette masters...

----------------------------------------------------------------------------------------------
note:
In preparaton of circulating this source, I asked Jim to help differtiate this source from
Chalie Miller's release of Steve Rolfe's recording.
His reply follws:

Steve Rolfe and I taped that show together, my deck (Sony tcd-5) was patched out of Steve's D5,
same signal but two separate cassette masters...

The reason this is different from Charlie Miller's release of Steve Rolfe's recording is because
it's my master, not Steve's master. The main differance is that Charlie Miller did not decode the
dolby properly (both mine and Steves masters were dolby B encoded). If you listen to the Miller
transfer of the Rolfe master, you'll hear the artificially equalized shrilly high end that's typical
when you leave the dolby switch in the "off" position of a tape that was originally dolby encoded.

David Minches did mine with a tweaked Nak Dragon and properly decoded the dolby on playback ...
If you playback this Minches transfer and adjust the high end to be boosted a bit, you'll experience
a much more natural sounding recording ... especially on higher end gear. That's the whole point
of having David remaster my work in 24/96 ...our Idea is to allow the end user to enjoy the sound and
adjust the tonal balance according to his, or her own preference, rather then have someone else
make those decisions for you during pre-production.
Jim Wise 2/23/2014

----------------------------------------------------------------------------------------------
downsampled to 44.1/16 bit cda with cdwav 198, sector boundaries checked and fixed with traders little helper,
recoded to flac 8 with TLH, checksums & shntool with traders little helper on
September 6, 2016 by MisterMojoRising([email protected])

    length     expanded size    cdr  WAVE problems  fmt   ratio  filename
     2:50.04       29997452 B   ---   --   ---xx   flac  0.5065  gd80-09-06d1t01-fixed.flac
     5:13.49       55328492 B   ---   --   ---xx   flac  0.5796  gd80-09-06d1t02-fixed.flac
     5:13.26       55274396 B   ---   --   ---xx   flac  0.5828  gd80-09-06d1t03-fixed.flac
    15:34.54      164884652 B   ---   --   ---xx   flac  0.5781  gd80-09-06d1t04-fixed.flac
     2:54.63       30841820 B   ---   --   ---xx   flac  0.5870  gd80-09-06d1t05-fixed.flac
     5:18.17       56135228 B   ---   --   ---xx   flac  0.5752  gd80-09-06d1t06-fixed.flac
     9:50.15      104111324 B   ---   --   ---xx   flac  0.5656  gd80-09-06d1t07-fixed.flac
    12:17.30      130077404 B   ---   --   ---xx   flac  0.5801  gd80-09-06d1t08-fixed.flac
    10:14.71      108476636 B   ---   --   ---xx   flac  0.5563  gd80-09-06d1t09-fixed.flac
     4:06.70       43559084 B   ---   --   ---xx   flac  0.5893  gd80-09-06d1t10-fixed.flac
     9:34.17      101293628 B   ---   --   ---xx   flac  0.5852  gd80-09-06d2t01-fixed.flac
     6:08.23       64969340 B   ---   --   ---xx   flac  0.5754  gd80-09-06d2t02-fixed.flac
     5:29.29       58103852 B   ---   --   ---xx   flac  0.6132  gd80-09-06d2t03-fixed.flac
     4:20.45       45969884 B   ---   --   ---xx   flac  0.6304  gd80-09-06d2t04-fixed.flac
     1:00.24       10640492 B   ---   --   ---xx   flac  0.4916  gd80-09-06d2t05-fixed.flac
    11:54.06      125963756 B   ---   --   ---xx   flac  0.5444  gd80-09-06d2t06-fixed.flac
     5:57.42       63073628 B   ---   --   ---xx   flac  0.5249  gd80-09-06d2t07-fixed.flac
     6:27.51       68386796 B   ---   --   ---xx   flac  0.5700  gd80-09-06d2t08-fixed.flac
    13:12.29      139777052 B   ---   --   ---xx   flac  0.5111  gd80-09-06d2t09-fixed.flac
     9:34.68      101413580 B   ---   --   ---xx   flac  0.5308  gd80-09-06d2t10-fixed.flac
     7:44.39       81941372 B   ---   --   ---xx   flac  0.5714  gd80-09-06d3t01-fixed.flac
    13:48.67      146216828 B   ---   --   ---xx   flac  0.5265  gd80-09-06d3t02-fixed.flac
     2:56.47       31156988 B   ---   --   ---xx   flac  0.5215  gd80-09-06d3t03-fixed.flac
     6:31.55       69101804 B   ---   --   ---xx   flac  0.5514  gd80-09-06d3t04-fixed.flac
     5:12.47       55147388 B   ---   --   ---xx   flac  0.5532  gd80-09-06d3t05-fixed.flac
     3:16.60       34715564 B   ---   --   ---xx   flac  0.5584  gd80-09-06d3t06-fixed.flac
     2:59.00       31575644 B   ---   --   ---xx   flac  0.5607  gd80-09-06d3t07-fixed.flac
    10:05.25      106780844 B   ---   --   ---xx   flac  0.5854  gd80-09-06d3t08-fixed.flac
     4:38.05       49051004 B   ---   --   ---xx   flac  0.5890  gd80-09-06d3t09-fixed.flac
     5:26.51       57626396 B   ---   --   ---xx   flac  0.5377  gd80-09-06d3t10-fixed.flac
   209:54.04     2221592328 B                            0.5609  (30 files)



Show Checksums
flac-md5
aad2dbf2d1aec55e8b17b34028882545 *gd80-09-06d1t01-fixed.flac
3a2453c4218608df501b5ec253bc26d5 *gd80-09-06d1t02-fixed.flac
141fb0d07484937448e0d3ce0fed1a57 *gd80-09-06d1t03-fixed.flac
d3b08f70a21564281487d71172f0909b *gd80-09-06d1t04-fixed.flac
9a71681f4ab97a4621054b0aebd718ad *gd80-09-06d1t05-fixed.flac
c2c7d21ad9c6703f675a060cb59d7886 *gd80-09-06d1t06-fixed.flac
8e7a71441742c85cffde56fe0798ca3e *gd80-09-06d1t07-fixed.flac
3bb907488a32a015eef38e1664c466a4 *gd80-09-06d1t08-fixed.flac
a58d7d62d8cffdfddfd31e320f358d2a *gd80-09-06d1t09-fixed.flac
82588986287a8448c7aec2b7e9a26620 *gd80-09-06d1t10-fixed.flac
5ce6edb47bf05e3a5fe97cef931bf2e1 *gd80-09-06d2t01-fixed.flac
ba3063ed08f4a0f4b532aaa045e6ab36 *gd80-09-06d2t02-fixed.flac
6a5110bf3fd1ebfde17efff272ca43c6 *gd80-09-06d2t03-fixed.flac
86d3e84d82254762e81271d5a9e32875 *gd80-09-06d2t04-fixed.flac
58aacef4dab6aa2c173ed24c8f54fc50 *gd80-09-06d2t05-fixed.flac
a387451005097484d0192ceaf35da33c *gd80-09-06d2t06-fixed.flac
753470a6aee564049ebcf303de1f3efa *gd80-09-06d2t07-fixed.flac
bc940a65bb88b9d211285ed52959bc93 *gd80-09-06d2t08-fixed.flac
d58de1d587bfab196e3b6e61cc8e298c *gd80-09-06d2t09-fixed.flac
2ab4ff29c6d0523b62259f06db749563 *gd80-09-06d2t10-fixed.flac
1512821b7ddff0bf4bdbaff86aa1394d *gd80-09-06d3t01-fixed.flac
780c4f1b483e8824289b730a60355591 *gd80-09-06d3t02-fixed.flac
da9b17f69550c148ae20a29166b49471 *gd80-09-06d3t03-fixed.flac
b77bd293bdcea304ac464c27dc88c292 *gd80-09-06d3t04-fixed.flac
381e4de00ab3375afa171ae94cdfa70e *gd80-09-06d3t05-fixed.flac
b407291224fff7055bad730524805467 *gd80-09-06d3t06-fixed.flac
fa0d5b9b2783f7e9c31d812faa2fdc2a *gd80-09-06d3t07-fixed.flac
1814254538603f0548211f08e93acfea *gd80-09-06d3t08-fixed.flac
40e0021dbefa9afe14bac6564612ef49 *gd80-09-06d3t09-fixed.flac
976d7f34fb9ce47f1be0bf9662ef830f *gd80-09-06d3t10-fixed.flac
ffp
gd80-09-06d1t01-fixed.flac:35e00752dea318bf6c5d18704d08dbcc
gd80-09-06d1t02-fixed.flac:0d1838411c907c75e1190529a08329f1
gd80-09-06d1t03-fixed.flac:4fb54392ea8c0c62c080d7f23de8cf8a
gd80-09-06d1t04-fixed.flac:7ad35493991932167aba4a337c7d1bc7
gd80-09-06d1t05-fixed.flac:3c63d527b32aadec80f2b79fa229dc6d
gd80-09-06d1t06-fixed.flac:5fbe20ef416975c7551b475362759f7b
gd80-09-06d1t07-fixed.flac:8f63a63eac3cb1c49d2436572776c520
gd80-09-06d1t08-fixed.flac:654fd656fe00b0614bc52d4839fea9d2
gd80-09-06d1t09-fixed.flac:5f36662b016af25736ee2f73fb8dbfe3
gd80-09-06d1t10-fixed.flac:1369ce98a33a10b7c62a50743c3f18b1
gd80-09-06d2t01-fixed.flac:36cbfcffbf48280957b752d94bd69f10
gd80-09-06d2t02-fixed.flac:ada2061e55fb52d7171d9695d4604a1c
gd80-09-06d2t03-fixed.flac:828d664f631edbe724fefe96353a5e71
gd80-09-06d2t04-fixed.flac:4362b60237c2f39d4271ef5e468c1985
gd80-09-06d2t05-fixed.flac:22f889f1f01bb5f7fe3bef459fa4bad4
gd80-09-06d2t06-fixed.flac:a4a0968c75c538908d3bfd92e844b278
gd80-09-06d2t07-fixed.flac:85b02a027dc030a8b0331f51cd66a7cb
gd80-09-06d2t08-fixed.flac:c63bca6ff5ad240f2e0d228f2bc14de0
gd80-09-06d2t09-fixed.flac:ee375b3f8134ef60fd26f548e313dd16
gd80-09-06d2t10-fixed.flac:146f74bac7b545dd5c9167fc54191e70
gd80-09-06d3t01-fixed.flac:a6faecde3e88b6599ac107d925d0b2a1
gd80-09-06d3t02-fixed.flac:fbcf55944c7778f648e228e4950551ea
gd80-09-06d3t03-fixed.flac:0f9c4764fc8220aa3922e28b952a12b2
gd80-09-06d3t04-fixed.flac:69eec886415649850e5eb99d933fe9da
gd80-09-06d3t05-fixed.flac:055a16345765b20016c127255258589a
gd80-09-06d3t06-fixed.flac:3d2e87d1dc3dd811002ec7b024a07195
gd80-09-06d3t07-fixed.flac:02f2fc51c949b686c6c44d2174c477bf
gd80-09-06d3t08-fixed.flac:3bad5433f4706924eeb3cafb91345152
gd80-09-06d3t09-fixed.flac:6c49d302dd0094fdbc7d3ea8bae627d7
gd80-09-06d3t10-fixed.flac:f7c5eebe119f461067b14b5e601b5f99

Comments
Add Comment
Other Sources (comments)
Nak Dragon > Sony PCM r-500... (8) MAC > ? > CD > EAC > SHNv3;... (0) *Set 1 Only*... (2) Recording by Jim Wise: FOB... (1) Recording Info (Source 1):... (0) flac16; Recording... (0) flac24; Recording... (0) flac24; AUD: 2x... (2) flac16; AUD: 2x... (2) flac16; (FOB)... (0) flac24; (FOB)... (0) flac16; FOB 3 mic... (0) flac16; source: aud... (0) flac24; source: aud... (0) flac24; Recording by... (0) flac24; Source Info:... (0) flac16/48kHz; Source... (0)
Date User Comment