Browse Collections Artists Sources   Search Dates

Add Show    List Management    Help


Grateful Dead 09/18/94
Shoreline Amphitheatre, Mountain View, CA
Comments Add Comment    Source Collectors    Add to Collection    Add to Want List    History
Source # 136849 Other Sources
Entered by Matt Vernon
Checksums ffp , flac-md5
Disc Counts 0 / 0
Media Size Compressed: 924.88 MB (969802551 bytes)
Uncompressed: 1.56 GB (1679992100 bytes)
Date Circulated
Date Added
09/13/2016
09/13/2016
Source Summary flac16; Recording Info: Set 1: SBD -> Dat -> Cassette Master -> Dat (48k); Set 2: SBD -> Dat (44.1k); Transfer Info: Dat (Tascam DA-20) -> Tascam DA-3000 -> Samplitude Professional v11.2.1 -> FLAC/44.1k; All Transfers and Mastering By Charlie Miller 
  Archive
Source Information - Download Text | Download Zip
The Grateful Dead - September 18, 1994
Shoreline Amphitheatre - Mountain View, CA

Recording Info:
Set 1: SBD -> Dat -> Cassette Master -> Dat (48k)
Set 1: SBD -> Dat (44.1k)

Transfer Info:
Dat (Tascam DA-20) -> Tascam DA-3000 -> Samplitude Professional v11.2.1 -> FLAC/44.1k
(3 Discs Audio / 1 DVD FLAC)

All Transfers and Mastering By Charlie Miller
[email protected]
September 12, 2016

Set 1:
01 - Touch Of Grey ->
02 - Greatest Story Ever Told
03 - Jack A Roe
04 - Little Red Rooster
05 - Tennessee Jed
06 - El Paso
07 - Brown Eyed Women
08 - The Music Never Stopped

Set 2:
09 - Iko Iko ->
10 - Saint Of Circumstance
11 - Samba In The Rain
12 - So Many Roads ->
13 - Samson And Delilah ->
14 - Drums ->
15 - Space ->
16 - The Days Between ->
17 - Throwing Stones ->
18 - Not Fade Away

Encore:
19 - Brokedown Palace


SHNTOOL OUTPUT:
    length     expanded size    cdr  WAVE problems  fmt   ratio  filename
     6:43.41       71185676 B   ---   --   ---xx   flac  0.7031  01 Touch Of Grey.flac
     4:17.08       45353660 B   ---   --   ---xx   flac  0.6936  02 Greatest Story Ever Told.flac
     5:45.52       60980348 B   ---   --   ---xx   flac  0.6743  03 Jack A Roe.flac
     8:37.67       91356428 B   ---   --   ---xx   flac  0.6688  04 Little Red Rooster.flac
     8:06.15       85765724 B   ---   --   ---xx   flac  0.6529  05 Tennessee Jed.flac
     6:27.00       68266844 B   ---   --   ---xx   flac  0.6186  06 El Paso.flac
     5:39.05       59811404 B   ---   --   ---xx   flac  0.6449  07 Brown Eyed Women.flac
    10:33.68      111821180 B   ---   --   ---xx   flac  0.6669  08 The Music Never Stopped.flac
    10:41.40      113166524 B   ---   --   ---xx   flac  0.5588  09 Iko Iko.flac
     7:30.08       79398860 B   ---   --   ---xx   flac  0.5963  10 Saint Of Circumstance.flac
     7:53.15       83472524 B   ---   --   ---xx   flac  0.5703  11 Samba In The Rain.flac
     9:32.19      100945532 B   ---   --   ---xx   flac  0.5624  12 So Many Roads.flac
     7:22.73       78140540 B   ---   --   ---xx   flac  0.5926  13 Samson And Delilah.flac
    12:24.28      131307500 B   ---   --   ---xx   flac  0.4407  14 Drums.flac
    10:52.33      115090460 B   ---   --   ---xx   flac  0.4206  15 Space.flac
    13:02.24      138001292 B   ---   --   ---xx   flac  0.5327  16 The Days Between.flac
     8:55.02       94378748 B   ---   --   ---xx   flac  0.5737  17 Throwing Stones.flac
     9:20.41       98880476 B   ---   --   ---xx   flac  0.5166  18 Not Fade Away.flac
     4:58.43       52668380 B   ---   --   ---xx   flac  0.5398  19 Brokedown Palace.flac
   158:43.57     1679992100 B                            0.5773  (19 files)


Show Checksums
ffp
01 Touch Of Grey.flac:5bcebe2256b0169f63f15fd203cc3b40
02 Greatest Story Ever Told.flac:98d5d163d7e63a86deef13364bbe3c97
03 Jack A Roe.flac:656824ea16da6a74942da4e5bf65fcbd
04 Little Red Rooster.flac:b8ae0aa5535073173e42b4fe18cc2581
05 Tennessee Jed.flac:d5a706e9112ce902c93ec846ebbd9b02
06 El Paso.flac:32773c60f937a94a1b1373c02319dd22
07 Brown Eyed Women.flac:991b1810842a8c274bbc5bd544c76a0d
08 The Music Never Stopped.flac:5fb6420ede9303ef3950ed47b8daeab6
09 Iko Iko.flac:b2a081d7ce39858cb83c29ad74913975
10 Saint Of Circumstance.flac:84cfc84170e9b44e98a04b62118dba50
11 Samba In The Rain.flac:dacc0c783d8f9eded83c95d2966be039
12 So Many Roads.flac:289654632010d813cfb2cecf62c2fa99
13 Samson And Delilah.flac:cd8b03da494a6fbb01215ceccb16a4cd
14 Drums.flac:b0bf785deb590e9d15943863465ba08f
15 Space.flac:0ce53881bbe31823294362b0c3708fec
16 The Days Between.flac:9543756d814a7367874ce0be689ce68f
17 Throwing Stones.flac:94af9626efa3606275c90741c0f7c99e
18 Not Fade Away.flac:f3d499b1a9f35fa2997b287d09e908ff
19 Brokedown Palace.flac:c86dbd192ede1a7ad57305384f48324a
flac-md5
5055b11ebe0a13174c692e3a371eeea1 *01 Touch Of Grey.flac
5f4d36cff606514b211c4829823b4d2f *02 Greatest Story Ever Told.flac
884006ddccc1def86c0db7df1d631574 *03 Jack A Roe.flac
f779d604652b69307f1f43d0d3d59a81 *04 Little Red Rooster.flac
6b447b4ce276a9a91eb2a36e700c998d *05 Tennessee Jed.flac
8451af5ec5ef74947681835027d60613 *06 El Paso.flac
6120e10057de813a775b04fc7f51e3bb *07 Brown Eyed Women.flac
05619557a330dd00053712c61f6ea677 *08 The Music Never Stopped.flac
71a7b7417a29c6a67e6fee7abe81b1c9 *09 Iko Iko.flac
3adeb40f2e37122813a4d78505bedb69 *10 Saint Of Circumstance.flac
2b9a431ea818b03d6e1317bcbd2a889d *11 Samba In The Rain.flac
1775b81bf28f669d6faf4970697cf857 *12 So Many Roads.flac
8638497c4509c9c8cfebf00d3d603a32 *13 Samson And Delilah.flac
351ce8cf4e0f897eecb6922a8f09ecd9 *14 Drums.flac
c9948589f3153f8b08617a083f1c98ca *15 Space.flac
4f7f7d9dc33283f0eac4882a15bc089e *16 The Days Between.flac
9805366ae4aafa64a5a6c16a9dcd7f65 *17 Throwing Stones.flac
9b31491099165b06d37d0e98d60804c2 *18 Not Fade Away.flac
f4967b3fa1b7e5216194a35745cb974d *19 Brokedown Palace.flac

Comments
Add Comment
Other Sources (comments)
AUD (Nak 300?s)>Aiwa... (1) flac16; Source:... (0)
Date User Comment