Browse Collections Artists Sources   Search Dates

Add Show    List Management    Help


Grateful Dead 09/27/94
Boston Garden, Boston, MA
Comments Add Comment    Source Collectors    Add to Collection    Add to Want List    History
Source # 136852 Other Sources
Entered by Matt Vernon
Checksums ffp , flac-md5
Disc Counts 0 / 0
Media Size Compressed: 1.18 GB (1262171874 bytes)
Uncompressed: 1.83 GB (1969824216 bytes)
Date Circulated
Date Added
09/13/2016
09/13/2016
Source Summary flac16/48kHz; Recording Info: SBD -> Dat -> Cassette Master -> Dat (48k); Transfer Info: Dat (Tascam DA-20) -> Tascam DA-3000 -> Samplitude Professional v11.2.1 -> FLAC/48k; All Transfers and Mastering By Charlie Miller 
  Archive
Source Information - Download Text | Download Zip
The Grateful Dead - September 27, 1994
Boston Garden - Boston, MA

Recording Info:
SBD -> Dat -> Cassette Master -> Dat (48k)

Transfer Info:
Dat (Tascam DA-20) -> Tascam DA-3000 -> Samplitude Professional v11.2.1 -> FLAC/48k
(1 DVD FLAC)

All Transfers and Mastering By Charlie Miller
[email protected]
September 13, 2016

Patch Info:
PNB Microphones -> Dat (shnid=14021) supplies:
Crowd (complete track)
Johnny B. Goode (complete track)

Set 1:
01 - Tuning
02 - Feel Like A Stranger
03 - They Love Each Other
04 - New Minglewood Blues
05 - So Many Roads
06 - Maggie's Farm ->
07 - Cumberland Blues
08 - Easy Answers
09 - Deal

Set 2:
10 - China Cat Sunflower ->
11 - I Know You Rider ->
12 - Women Are Smarter
13 - Way To Go Home ->
14 - Corrina ->
15 - Uncle John's Band ->
16 - Drums ->
17 - Space ->
18 - All Along The Watchtower ->
19 - Standing On The Moon

Encore:
20 - Crowd
21 - Johnny B. Goode


SHNTOOL OUTPUT:
    length     expanded size    cdr  WAVE problems  fmt   ratio  filename
     0:47.914       9199576 B   cxx   --   ---xx   flac  0.5400  01 Tuning.flac
    10:03.651     115900992 B   cxx   --   ---xx   flac  0.6825  02 Feel Like A Stranger.flac
    10:07.479     116636040 B   cxx   --   ---xx   flac  0.6370  03 They Love Each Other.flac
     9:13.311     106235756 B   cxx   --   ---xx   flac  0.6635  04 New Minglewood Blues.flac
     7:28.045      86024712 B   cxx   --   ---xx   flac  0.6277  05 So Many Roads.flac
     6:01.861      69477336 B   cxx   --   ---xx   flac  0.6637  06 Maggie's Farm.flac
     5:21.838      61792916 B   cxx   --   ---xx   flac  0.6515  07 Cumberland Blues.flac
     6:42.433      77267096 B   cxx   --   ---xx   flac  0.6909  08 Easy Answers.flac
     6:14.919      71984504 B   cxx   --   ---xx   flac  0.6752  09 Deal.flac
     7:50.706      90375568 B   cxx   --   ---xx   flac  0.6425  10 China Cat Sunflower.flac
     6:18.384      72649820 B   cxx   --   ---xx   flac  0.6346  11 I Know You Rider.flac
    10:44.035     123654704 B   cxx   --   ---xx   flac  0.6333  12 Women Are Smarter.flac
     6:24.635      73850040 B   cxx   --   ---xx   flac  0.6457  13 Way To Go Home.flac
    10:50.037     124807148 B   cxx   --   ---xx   flac  0.6628  14 Corrina.flac
    15:53.147     183004320 B   cxx   --   ---xx   flac  0.6420  15 Uncle John's Band.flac
    12:34.258     144817572 B   cxx   --   ---xx   flac  0.6142  16 Drums.flac
    16:45.381     193033284 B   cxx   --   ---xx   flac  0.5969  17 Space.flac
     6:43.435      77459508 B   cxx   --   ---xx   flac  0.6711  18 All Along The Watchtower.flac
     8:56.724     103051080 B   cxx   --   ---xx   flac  0.6429  19 Standing On The Moon.flac
     1:26.001      16512152 B   cxx   --   ---xx   flac  0.4855  20 Crowd.flac
     4:31.302      52090092 B   cxx   --   ---xx   flac  0.5790  21 Johnny B Goode.flac
   170:59.496    1969824216 B                            0.6408  (21 files)



Show Checksums
ffp
01 Tuning.flac:e8f315cb74abe3bd8f548722790c6da9
02 Feel Like A Stranger.flac:d3411b5765e33847e3936cdb436bd5c9
03 They Love Each Other.flac:5fd599af26aa61cd22540ef10e28ea69
04 New Minglewood Blues.flac:56db8d6e9a7458b1c781e09f4258c022
05 So Many Roads.flac:bd8516843af497c246cdae69645bea07
06 Maggie's Farm.flac:0451821369435a61dff260310c0c865b
07 Cumberland Blues.flac:e4751f6fba9473ff2b0b1fbb47fd2277
08 Easy Answers.flac:27ec5a94bc1a1424f4b42d3e2d196302
09 Deal.flac:e3b3931489bb8dd7b5ccba75615b83bd
10 China Cat Sunflower.flac:b45e50acfb4c14d5a618e5f0daa7f2c7
11 I Know You Rider.flac:93e2f520d1e392d80b1ad0e1a2fa6ee2
12 Women Are Smarter.flac:145f680335507c7726289c1743acb7d0
13 Way To Go Home.flac:44bb848ed5389dc8347a7b5703961802
14 Corrina.flac:0f057544a1d6c4635751bb92d3eebfd1
15 Uncle John's Band.flac:26a30eff2430c5700e40eae8517474b5
16 Drums.flac:f9852dc7d64ce282e3da148ea6f71b0a
17 Space.flac:d25b3faed30d2ee2f8bcafecf6223b7c
18 All Along The Watchtower.flac:cf51ba7c06cf52509f5845eaa96bd765
19 Standing On The Moon.flac:4778b2d6fa39bfdee83876ebfe9e536b
20 Crowd.flac:47d3ca45879ab67d6960c94da9504117
21 Johnny B Goode.flac:6fb0b4d81b851b21bca54dcab0545dcb
flac-md5
e8028390d1bca34535cc3518d6d77035 *01 Tuning.flac
c5769f41912a9a06c13e3d76b8f79b83 *02 Feel Like A Stranger.flac
590d1d6bb1bec5c51b3136d57315a265 *03 They Love Each Other.flac
296360352ad5157d1b7c93b6daf6e8e2 *04 New Minglewood Blues.flac
fef1203a467d4299810ab97e69e23724 *05 So Many Roads.flac
f16b2c2d87f37823229a42e6f6b8db7c *06 Maggie's Farm.flac
b2e10f548267a52390ef3b3559baa119 *07 Cumberland Blues.flac
98f8b12792f9ff256074ba34ccc7216f *08 Easy Answers.flac
3b4324f3c176219a138a670fa9d976f9 *09 Deal.flac
6d098ab718a4041301e5dc0833161cbd *10 China Cat Sunflower.flac
31499227dd6b5e3a880344974c616ecb *11 I Know You Rider.flac
2c72202adebfd0675b78b8257cd48f1e *12 Women Are Smarter.flac
ce2f8a2807b8d8a83cfa6a0b6f9d89fb *13 Way To Go Home.flac
41a3b1333f78a612bfdc167379b5e5c0 *14 Corrina.flac
fb6c422c94fb70fc43281e91684bb287 *15 Uncle John's Band.flac
e07381a485e184706489d673a4142743 *16 Drums.flac
b282ce0ee06a00b16fdc7f4fcef968fa *17 Space.flac
538afeaf901c7dfc0b3d602b0cdfebcc *18 All Along The Watchtower.flac
4f89d298b37dd3af686508fb028f4bd9 *19 Standing On The Moon.flac
97aa5134d85f34812ede8b6dc5d7015f *20 Crowd.flac
5616ff35e13d3b3da27114763cac5593 *21 Johnny B Goode.flac

Comments
Add Comment
Other Sources (comments)
DAUD Nakamichi 300(2) + cp... (0) unknown DAUD source; Seeded... (0) PNB Microphones FOB via... (0) flac16; AKG... (0) flac16/48kHz; Set 2... (0)
Date User Comment
09/13/2016 Wharfrat73 Updated info file. Had been marked Dat (44.1k)