Browse Collections Artists Sources   Search Dates

Add Show    List Management    Help


Grateful Dead 09/16/94
Shoreline Amphitheatre, Mountain View, CA
Comments Add Comment    Source Collectors    Add to Collection    Add to Want List    History
Source # 136859 Other Sources
Entered by Matt Vernon
Checksums ffp , flac-md5
Disc Counts 0 / 0
Media Size Compressed: 592.45 MB (621227643 bytes)
Uncompressed: 1.07 GB (1150344868 bytes)
Date Circulated
Date Added
09/15/2016
09/15/2016
Source Summary flac16; Set 2 Recording Info: SBD -> Dat (44.1k); Transfer Info: Dat (Tascam DA-20) -> Tascam DA-3000 -> Samplitude Professional v11.2.1 -> FLAC/44.1k; All Transfers and Mastering By Charlie Miller 
  Archive
Source Information - Download Text | Download Zip
Grateful Dead - September 16, 1994
Shoreline Amphitheatre - Mountain View, CA

Recording Info:
SBD -> Dat (44.1k)

Transfer Info:
Dat (Tascam DA-20) -> Tascam DA-3000 -> Samplitude Professional v11.2.1 -> FLAC/44.1k
(2 Discs Audio / 1 Disc FLAC)

All Transfers and Mastering By Charlie Miller
[email protected]
September 15, 2016

Notes:
-- Set 2 only

Set 2:
01 - Victim Or The Crime ->
02 - If The Shoe Fits ->
03 - Crazy Fingers ->
04 - Estimated Prophet ->
05 - Eyes Of The World ->
06 - Drums ->
07 - Space ->
08 - The Last Time ->
09 - The Wheel ->
10 - Good Lovin'

Encore:
11 - Liberty


SHNTOOL OUTPUT:
    length     expanded size    cdr  WAVE problems  fmt   ratio  filename
     7:41.07       81336908 B   ---   --   ---xx   flac  0.6031  01 Victim Or The Crime.flac
     6:23.23       67615340 B   ---   --   ---xx   flac  0.6015  02 If The Shoe Fits.flac
     9:18.55       98560604 B   ---   --   ---xx   flac  0.5558  03 Crazy Fingers.flac
    11:46.64      124688972 B   ---   --   ---xx   flac  0.5837  04 Estimated Prophet.flac
    11:42.36      123917516 B   ---   --   ---xx   flac  0.5585  05 Eyes Of The World.flac
    16:18.07      172535708 B   ---   --   ---xx   flac  0.4723  06 Drums.flac
    18:11.42      192551228 B   ---   --   ---xx   flac  0.4612  07 Space.flac
     5:59.00       63327644 B   ---   --   ---xx   flac  0.5834  08 The Last Time.flac
     6:13.48       65910140 B   ---   --   ---xx   flac  0.5626  09 The Wheel.flac
     8:35.18       90888380 B   ---   --   ---xx   flac  0.5447  10 Good Lovin'.flac
     6:31.17       69012428 B   ---   --   ---xx   flac  0.5931  11 Liberty.flac
   108:41.17     1150344868 B                            0.5400  (11 files)


Show Checksums
ffp
01 Victim Or The Crime.flac:6fed1e14e66319dbefa1387a7d87894c
02 If The Shoe Fits.flac:2379f0bcb2ff703bbe37bd96edde8e53
03 Crazy Fingers.flac:c000190b2ca8d89e369e74da7c8bbffd
04 Estimated Prophet.flac:2afca61d3dc534a50c506a64d5399039
05 Eyes Of The World.flac:c2ebabd1e3c2a7b359bc9abc39e8d5a9
06 Drums.flac:899ce517a83d11259b581ee0935a0623
07 Space.flac:e9a612b4d4da4955f2cd7dc1f042c6e2
08 The Last Time.flac:af93b930c32f79d41c5698587590953a
09 The Wheel.flac:787393601c241bd45830a3efe74c54ed
10 Good Lovin'.flac:95df1c6761499637cb4b54b5f71ed870
11 Liberty.flac:9e72de531fc61c8d3c9e4b96b66d2e79
flac-md5
b5ef1071e666001a0d28fe4ed870df20 *01 Victim Or The Crime.flac
60bb0c9f773bb230283f34b1569bcba8 *02 If The Shoe Fits.flac
fe4ebba2bc747014a0cdf8dd55cec8dc *03 Crazy Fingers.flac
5d4fb1b2e05ae704832d84f17ba4969d *04 Estimated Prophet.flac
a5747a925d29510ac5299d2de985b9fb *05 Eyes Of The World.flac
d696af910472084a90be9936b77d57d2 *06 Drums.flac
3d7334ad9a2a7de8591d96b9d8531a23 *07 Space.flac
4ad97ddc1c65ab88134fa31ea074b726 *08 The Last Time.flac
6fc332210153019f176c896ff14a51e0 *09 The Wheel.flac
879aefc4c0f837654b639b361537ee78 *10 Good Lovin'.flac
297337937e64ecfaf61c37851bb8e243 *11 Liberty.flac

Comments
Add Comment
Other Sources (comments)
AKG C61 Tube mics > DAT... (0) flac16/48kHz; Set 2... (1)
Date User Comment