Browse Collections Artists Sources   Search Dates

Add Show    List Management    Help


Grateful Dead 09/28/94
Boston Garden, Boston, MA
Comments Add Comment    Source Collectors    Add to Collection    Add to Want List    History
Source # 136872 Other Sources
Entered by Matt Vernon
Checksums ffp , flac-md5
Disc Counts 0 / 0
Media Size Compressed: 871.28 MB (913605483 bytes)
Uncompressed: 1.52 GB (1629024304 bytes)
Date Circulated
Date Added
09/15/2016
09/15/2016
Source Summary flac16; Recording Info: SBD -> Dat -> Cassette Master -> Dat (44.1k); Transfer Info: Dat (Tascam DA-20) -> Tascam DA-3000 -> Samplitude Professional v11.2.1 -> FLAC; All Transfers and Mastering By Charlie Miller 
  Archive
Source Information - Download Text | Download Zip
Grateful Dead - September 28, 1994
Boston Garden - Boston, MA

Recording Info:
SBD -> Dat -> Cassette Master -> Dat (44.1k)

Transfer Info:
Dat (Tascam DA-20) -> Tascam DA-3000 -> Samplitude Professional v11.2.1 -> FLAC
(2 Discs Audio / 1 DVD FLAC)

All Transfers and Mastering By Charlie Miller
[email protected]
September 15, 2016

Notes:
-- The Cassette Master melts down during the Victim -> Foolish seque

Set 1:
01 - Let The Good Times Rool
02 - Bertha ->
03 - Greatest Story Ever Told
04 - West L.A. Fadeaway
05 - El Paso
06 - Lazy River Road
07 - Eternity ->
08 - Don't Ease Me In

Set 2:
09 - Victim Or The Crime ->
10 - Foolish Heart
11 - Looks Like Rain
12 - Samba In The Rain ->
13 - Jam ->
14 - Drums ->
15 - Space ->
16 - The Wheel ->
17 - I Need A Miracle ->
18 - Black Peter ->
19 - Turn On Your Lovelight

Encore:
20 - It's All Over Now, Baby Blue


SHNTOOL OUTPUT:
    length     expanded size    cdr  WAVE problems  fmt   ratio  filename
     3:54.05       41289404 B   ---   --   ---xx   flac  0.5840  01 Let The Good Times Roll.flac
     8:07.67       86064428 B   ---   --   ---xx   flac  0.6056  02 Bertha.flac
     4:13.71       44796236 B   ---   --   ---xx   flac  0.5902  03 Greatest Story Ever Told.flac
     9:33.53      101201900 B   ---   --   ---xx   flac  0.5719  04 West LA Fadeaway.flac
     7:11.57       76162508 B   ---   --   ---xx   flac  0.5604  05 El Paso.flac
     6:33.61       69468716 B   ---   --   ---xx   flac  0.5888  06 Lazy River Road.flac
    10:43.50      113542844 B   ---   --   ---xx   flac  0.5549  07 Eternity.flac
     3:06.60       32951564 B   ---   --   ---xx   flac  0.5748  08 Don't Ease Me In.flac
    10:09.32      107502908 B   ---   --   ---xx   flac  0.5804  09 Victim Or The Crime.flac
    11:29.08      121558460 B   ---   --   ---xx   flac  0.5766  10 Foolish Heart.flac
     8:50.12       93520268 B   ---   --   ---xx   flac  0.5365  11 Looks Like Rain.flac
     7:21.04       77801852 B   ---   --   ---xx   flac  0.5774  12 Samba In The Rain.flac
     6:23.17       67601228 B   ---   --   ---xx   flac  0.5473  13 Jam.flac
     7:03.20       74664284 B   ---   --   ---xx   flac  0.4930  14 Drums.flac
    14:59.12      158611868 B   ---   --   ---xx   flac  0.5079  15 Space.flac
     5:54.66       62600876 B   ---   --   ---xx   flac  0.5815  16 The Wheel.flac
     4:56.34       52294412 B   ---   --   ---xx   flac  0.5866  17 I Need A Miracle.flac
     9:15.65       98054924 B   ---   --   ---xx   flac  0.5499  18 Black Peter.flac
     7:26.22       78726188 B   ---   --   ---xx   flac  0.5755  19 Turn On Your Lovelight.flac
     6:40.21       70609436 B   ---   --   ---xx   flac  0.5559  20 It's All Over Now, Baby Blue.flac
   153:54.62     1629024304 B                            0.5608  (20 files)


Show Checksums
ffp
01 Let The Good Times Roll.flac:9cc25217bb2f76606890abf70f449913
02 Bertha.flac:f1b9c6343bf8d93d7929f355778be9e1
03 Greatest Story Ever Told.flac:309ba084715f094bf7e417daa7d27e53
04 West LA Fadeaway.flac:d63423d31d54fbc5504bddbb72cf2628
05 El Paso.flac:300e748086e6432fc3426243ca64e19c
06 Lazy River Road.flac:734955208bbaa0c75c9dfe5bb245aaa0
07 Eternity.flac:744415049689d91b335a5337cc528302
08 Don't Ease Me In.flac:8790924596bbf3551150c182adccd427
09 Victim Or The Crime.flac:eb2d03c3801d06aec0c54dfd8224ac5e
10 Foolish Heart.flac:238c6b3d0b6b01b27121497a19ab78a9
11 Looks Like Rain.flac:5a4bb5b4818d98e602d944ff6ef74ac6
12 Samba In The Rain.flac:42a3e2344c2e4c6ae0067139c7956b95
13 Jam.flac:34dc70053445f7ad540181b4a02f69bb
14 Drums.flac:54d3df249e304c70e029a03413712b8d
15 Space.flac:9c2867871fb98fa0a47f23c4d77ece04
16 The Wheel.flac:f320b4b2482024d56ef74976ad621b60
17 I Need A Miracle.flac:3e629e5c87f96b47787782789a327257
18 Black Peter.flac:62f724b75ca864cd2418ed516d0c0618
19 Turn On Your Lovelight.flac:51a310da4fdf0ace3e90b7ed404ceb21
20 It's All Over Now, Baby Blue.flac:a0267666cb6e17594e7f11efdd0d9c5e
flac-md5
bde564552b724a9120eb23c3b632a78c *01 Let The Good Times Roll.flac
6a1fe2d26fa98a5e61d93d76d4a11520 *02 Bertha.flac
d15d74fe98157df57d687efc39e0a610 *03 Greatest Story Ever Told.flac
fc92ed9cb4d0abcbc145229f5597e112 *04 West LA Fadeaway.flac
0eb377f86d82c372a370f011534ddfaa *05 El Paso.flac
df6e737e5d4137ffd2a3c437701afde6 *06 Lazy River Road.flac
f7aba07c33510045a75698557e25cc99 *07 Eternity.flac
434bbc4df97fa70b951f62f5da6a644d *08 Don't Ease Me In.flac
80716a55f4db070bb64d2a0020d58ebc *09 Victim Or The Crime.flac
0480a5fee73ba97446f4e860ccb24412 *10 Foolish Heart.flac
bda9143e61b6deef9361de34304229f3 *11 Looks Like Rain.flac
f3fd0e38d106e379e44be7b4d862f99e *12 Samba In The Rain.flac
07f16b985c4f3837a90489797ca6a738 *13 Jam.flac
402e1c0c6fba7a76e572f8d10523291a *14 Drums.flac
19c41721848159234b10a473c68be4c6 *15 Space.flac
479fe88be3ec4333556cedb23bb78c08 *16 The Wheel.flac
55b08f7e1c7e770764f66d03e8dc3f68 *17 I Need A Miracle.flac
762624febf134cf715b216c35d561b63 *18 Black Peter.flac
adc838dbfe542a6a5963df5d4968b618 *19 Turn On Your Lovelight.flac
f4aa42492b485ac1cdaa75a366918844 *20 It's All Over Now, Baby Blue.flac

Comments
Add Comment
Other Sources (comments)
unknown DAUD source; Seeded... (0) PMB Microphones FOB via... (1) flac16; AKG... (0)
Date User Comment