Browse Collections Artists Sources   Search Dates

Add Show    List Management    Help


Grateful Dead 10/02/94
Boston Garden, Boston, MA
Comments Add Comment    Source Collectors    Add to Collection    Add to Want List    History
Source # 136875 Other Sources
Entered by Matt Vernon
Checksums ffp , flac-md5
Disc Counts 0 / 0
Media Size Compressed: 1.25 GB (1338464354 bytes)
Uncompressed: 1.98 GB (2128613416 bytes)
Date Circulated
Date Added
09/15/2016
09/16/2016
Source Summary flac16/48kHz; Recording Info: SBD -> Dat -> Cassette Master -> Dat (48k); Transfer Info: Dat (Tascam DA-20) -> Tascam DA-3000 -> Samplitude Professional v11.2.1 -> FLAC/48; All Transfers and Mastering By Charlie Miller 
  Archive
Source Information - Download Text | Download Zip
Grateful Dead - October 2, 1994
Boston Garden - Boston, MA

Recording Info:
SBD -> Dat -> Cassette Master -> Dat (48k)

Transfer Info:
Dat (Tascam DA-20) -> Tascam DA-3000 -> Samplitude Professional v11.2.1 -> FLAC/48
(1 DVD FLAC)

All Transfers and Mastering By Charlie Miller
[email protected]
September 15, 2016

Set 1:
01 - Jack Straw
02 - Loser
03 - It's All Over Now
04 - Row Jimmy
05 - Broken Arrow
06 - Mama Tried ->
07 - Mexicali Blues
08 - Tennessee Jed
09 - Picasso Moon

Set 2:
10 - Iko Iko
11 - Samba In The Rain
12 - If The Shoe Fits
13 - Samson And Delilah
14 - Crazy Fingers ->
15 - Truckin' ->
16 - That Would Be Something ->
17 - Drums ->
18 - Space ->
19 - The Days Between ->
20 - Throwing Stones ->
21 - Not Fade Away

Encore:
22 - U.S. Blues


SHNTOOL OUTPUT:
    length     expanded size    cdr  WAVE problems  fmt   ratio  filename
     6:31.479      75164040 B   cxx   --   ---xx   flac  0.6369  01 Jack Straw.flac
     8:33.030      98501780 B   cxx   --   ---xx   flac  0.6013  02 Loser.flac
     7:17.955      84087416 B   cxx   --   ---xx   flac  0.6392  03 It's All Over Now.flac
    12:47.766     147411176 B   cxx   --   ---xx   flac  0.6210  04 Row Jimmy.flac
     7:13.231      83180356 B   cxx   --   ---xx   flac  0.6161  05 Broken Arrow.flac
     2:36.111      29973260 B   cxx   --   ---xx   flac  0.6600  06 Mama Tried.flac
     5:55.134      68185848 B   cxx   --   ---xx   flac  0.6653  07 Mexicali Blues.flac
     7:49.471      90138384 B   cxx   --   ---xx   flac  0.6412  08 Tennessee Jed.flac
     6:53.774      79444572 B   cxx   --   ---xx   flac  0.6928  09 Picasso Moon.flac
    12:40.072     145933804 B   cxx   --   ---xx   flac  0.6433  10 Iko Iko.flac
     7:04.539      81511628 B   cxx   --   ---xx   flac  0.6551  11 Samba In The Rain.flac
     7:23.305      85114640 B   cxx   --   ---xx   flac  0.6467  12 If The Shoe Fits.flac
     9:11.999     105983944 B   cxx   --   ---xx   flac  0.6235  13 Samson And Delilah.flac
     8:39.158      99678400 B   cxx   --   ---xx   flac  0.6086  14 Crazy Fingers.flac
     7:53.101      90835496 B   cxx   --   ---xx   flac  0.6682  15 Truckin'.flac
     8:13.852      94819612 B   cxx   --   ---xx   flac  0.6178  16 That Would Be Something.flac
    12:22.691     142596664 B   cxx   --   ---xx   flac  0.5808  17 Drums.flac
     8:19.824      95966244 B   cxx   --   ---xx   flac  0.5688  18 Space.flac
    12:42.255     146353016 B   cxx   --   ---xx   flac  0.6129  19 The Days Between.flac
     9:55.853     114403780 B   cxx   --   ---xx   flac  0.6595  20 Throwing Stones.flac
     9:53.985     114045124 B   cxx   --   ---xx   flac  0.6062  21 Not Fade Away.flac
     4:47.938      55284232 B   cxx   --   ---xx   flac  0.6659  22 U.S. Blues.flac
   184:46.523    2128613416 B                            0.6288  (22 files)


Show Checksums
ffp
01 Jack Straw.flac:a35e54e68af5d1c2f618dfeb4f725f44
02 Loser.flac:ff8a1bd51082358f68930871b841cc1f
03 It's All Over Now.flac:e2994624a16759fd513bc7023aeb7e1d
04 Row Jimmy.flac:62b740b153b583dc7350a101d8730ff9
05 Broken Arrow.flac:4d01020c1d6bc03d24b5e3c697f91fa3
06 Mama Tried.flac:95ed520a2929405b659353767d5c83fc
07 Mexicali Blues.flac:e3b7320fbb4dc3e5e1caf9b551f0f5f9
08 Tennessee Jed.flac:8a55045ab699704deef246b9fbee462f
09 Picasso Moon.flac:52bf6e041616d855bbe6c0e11fd4a903
10 Iko Iko.flac:84e7bfb342f0b964cf0f2fcb7a903071
11 Samba In The Rain.flac:de8d5dbba968f71de2fa7f5ed71864c0
12 If The Shoe Fits.flac:28abd4295525fc732251eaea68a5bc35
13 Samson And Delilah.flac:9b124db5774ad018bd9fb5a60378656e
14 Crazy Fingers.flac:88bdce16fcdd8909981769d6ae635557
15 Truckin'.flac:f86b32815b42f799102386749fb9e492
16 That Would Be Something.flac:5dfcb5276ce7fb0337bf77caa82cdb95
17 Drums.flac:a387f292517fd2c6c9d94af10eebbefa
18 Space.flac:13606b363c7f3bec2386eb60b7054fd5
19 The Days Between.flac:9e19b6fe6951bf71630e7db6f682847c
20 Throwing Stones.flac:f831136fc17cece311130d59730ff47c
21 Not Fade Away.flac:a1c65ecdb390357f9ffb545520f3ad3d
22 U.S. Blues.flac:9289e69465d6e1b22f3e8249764bed8c
flac-md5
507fe8b3e06f93d9c20fde7a84bc1214 *01 Jack Straw.flac
387c751edf5ea089ebb2bce1252f801c *02 Loser.flac
7bb6ef38f59ace9c6a0a467c398f12bc *03 It's All Over Now.flac
bd075fea4e27e522541871960882d91a *04 Row Jimmy.flac
16702b1837308bd0af0f0ca68cb9c708 *05 Broken Arrow.flac
ed030628681ae0457505a0aa05339c77 *06 Mama Tried.flac
6498d6db0d9a8664a1dbf56b096152b9 *07 Mexicali Blues.flac
0cf49e31b232d966df6001c21df5637c *08 Tennessee Jed.flac
313de9cbd8deb5c80984b4f71f266454 *09 Picasso Moon.flac
c1c39f5fb33ac22bcaafaf6884a48350 *10 Iko Iko.flac
6a392273dfaf12948c459455a8002d5e *11 Samba In The Rain.flac
300a3ad4f169c3794789225f1e63bb66 *12 If The Shoe Fits.flac
6629fa06ef32b1d9f38b81bc75b21176 *13 Samson And Delilah.flac
adae10c4405837a7649200c00e569d7d *14 Crazy Fingers.flac
488b65ac23278971a358e49c92570ec0 *15 Truckin'.flac
e90fdfd657f4722e1cc7747c749e1e12 *16 That Would Be Something.flac
9bb3cd27942007b8c57cd500df34f800 *17 Drums.flac
e8ce79e0b7b0be1fb460413ab59ae2a9 *18 Space.flac
daf8342e53d5a722d0706b70343dc701 *19 The Days Between.flac
fee33d2c41050d50c9f18f24fa6a05ce *20 Throwing Stones.flac
d80c6c636b4400e3506d042395699770 *21 Not Fade Away.flac
0e39e31be10cccbae9389348083e1e03 *22 U.S. Blues.flac

Comments
Add Comment
Other Sources (comments)
Unknown Schoeps audience... (1) PMB Microphones FOB> Sony... (0) flac16; AKG... (0) flac16; AUD:... (0) flac16/48kHz; Rich... (0) flac16/48kHz; Master... (0)
Date User Comment