Browse Collections Artists Sources   Search Dates

Add Show    List Management    Help


Grateful Dead 10/03/94
Boston Garden, Boston, MA
Comments Add Comment    Source Collectors    Add to Collection    Add to Want List    History
Source # 136890 Other Sources
Entered by Matt Vernon
Checksums ffp , flac-md5
Disc Counts 0 / 0
Media Size Compressed: 1.08 GB (1161740243 bytes)
Uncompressed: 1.68 GB (1799463544 bytes)
Date Circulated
Date Added
09/15/2016
09/16/2016
Source Summary flac16/48kHz; Recording Info: SBD -> Dat -> Cassette Master -> Dat (48k); Transfer Info: Dat (Tascam DA-20) -> Tascam DA-3000 -> Samplitude Professional v11.2.1 -> FLAC/48; All Transfers and Mastering By Charlie Miller 
  Archive
Source Information - Download Text | Download Zip
Grateful Dead - October 3, 1994
Boston Garden - Boston, MA

Recording Info:
SBD -> Dat -> Cassette Master -> Dat (48k)

Transfer Info:
Dat (Tascam DA-20) -> Tascam DA-3000 -> Samplitude Professional v11.2.1 -> FLAC/48
(1 DVD FLAC)

All Transfers and Mastering By Charlie Miller
[email protected]
September 15, 2016

Set 1:
01 - Touch Of Grey ->
02 - Beat It On Down The Line
03 - Loose Lucy
04 - Little Red Rooster
05 - Childhood's End
06 - Dire Wolf
07 - Black Throated Wind
08 - Bird Song

Set 2:
09 - Box Of Rain
10 - Shakedown Street
11 - Cassidy ->
12 - Goin' Down The Road Feeling Bad ->
13 - Drums ->
14 - Space ->
15 - The Wheel ->
16 - All Along The Watchtower ->
17 - Attics Of My Life ->
18 - Around And Around

Encore:
19 - Brokedown Palace


SHNTOOL OUTPUT:
    length     expanded size    cdr  WAVE problems  fmt   ratio  filename
     7:41.187      88547884 B   cxx   --   ---xx   flac  0.6911  01 Touch Of Grey.flac
     3:25.505      39457084 B   cxx   --   ---xx   flac  0.6979  02 Beat It On Down The Line.flac
     7:57.749      91727844 B   cxx   --   ---xx   flac  0.6635  03 Loose Lucy.flac
    10:03.252     115824452 B   cxx   --   ---xx   flac  0.6265  04 Little Red Rooster.flac
     4:40.722      53898644 B   cxx   --   ---xx   flac  0.6317  05 Childhood's End.flac
     4:07.184      47459308 B   cxx   --   ---xx   flac  0.6262  06 Dire Wolf.flac
     5:52.730      67724196 B   cxx   --   ---xx   flac  0.6631  07 Black Throated Wind.flac
    13:11.156     151902056 B   cxx   --   ---xx   flac  0.6539  08 Bird Song.flac
     5:28.525      63076808 B   cxx   --   ---xx   flac  0.6571  09 Box Of Rain.flac
    16:52.069     194317380 B   cxx   --   ---xx   flac  0.6823  10 Shakedown Street.flac
     7:45.149      89308588 B   cxx   --   ---xx   flac  0.6817  11 Cassidy.flac
     8:21.550      96297632 B   cxx   --   ---xx   flac  0.6630  12 Goin' Down The Road Feeling Bad.flac
    16:41.290     192247724 B   cxx   --   ---xx   flac  0.5995  13 Drums.flac
    13:07.609     151221048 B   cxx   --   ---xx   flac  0.5649  14 Space.flac
     4:56.939      57012244 B   cxx   --   ---xx   flac  0.6724  15 The Wheel.flac
     6:38.682      76546912 B   cxx   --   ---xx   flac  0.6884  16 All Along The Watchtower.flac
     4:14.906      48941928 B   cxx   --   ---xx   flac  0.6247  17 Attics Of My Life.flac
    10:10.467     117209792 B   cxx   --   ---xx   flac  0.6418  18 Around And Around.flac
     4:55.531      56742020 B   cxx   --   ---xx   flac  0.6224  19 Brokedown Palace.flac
   156:12.202    1799463544 B                            0.6456  (19 files)


Show Checksums
ffp
01 Touch Of Grey.flac:5c0300df584501bc5f1e47ce1915c44a
02 Beat It On Down The Line.flac:97c6237112ab541197cde96951af8bb6
03 Loose Lucy.flac:8d5d57beb5e75671f8b6d6ca12350fa3
04 Little Red Rooster.flac:a26fd993b69003f736f4bad919acc001
05 Childhood's End.flac:b5c62debd166fb5c254377d7d9a99b95
06 Dire Wolf.flac:9a6e40ae20842b990ba2adadf390b867
07 Black Throated Wind.flac:0201039f64a2e458af6b5683d8e7ea38
08 Bird Song.flac:c42ab5bebe0e82cf844f9dac70963278
09 Box Of Rain.flac:c4878412f9639bf16570f99c771addf4
10 Shakedown Street.flac:0b71fe7c57508d0c8aaf2958f8beec88
11 Cassidy.flac:1c095e9b3b26726ea3012923f7f83e63
12 Goin' Down The Road Feeling Bad.flac:8269b14d0f92a77db272072dfb6d9534
13 Drums.flac:6cd35dab5da50c149d7c214a86ad25f4
14 Space.flac:25a3e80b42e64b0d8032dc4b22f53c47
15 The Wheel.flac:2c66f60826218f724b5794a88e51f5a1
16 All Along The Watchtower.flac:cf2b0012f53325891f2b79b74143e7b6
17 Attics Of My Life.flac:c00c51382fe78a5251741c2f1c7c4283
18 Around And Around.flac:8e04645e489aaae9ac1b31fc3dfab0a3
19 Brokedown Palace.flac:f691db897f4ae260a10ecdbe39ded864
flac-md5
c86049543fa871ca328d6854e5d64a94 *01 Touch Of Grey.flac
8b5b6606b69b7dc12df0bbb63b3cc319 *02 Beat It On Down The Line.flac
78bf899ab7c34242d62198e061ec85d3 *03 Loose Lucy.flac
26d82cba8dc52902281b0a651777bc36 *04 Little Red Rooster.flac
7eabd846b86b8ceab03a20f19d439e07 *05 Childhood's End.flac
f464443b1abb969e32b5788856b298d6 *06 Dire Wolf.flac
7e0e0b562173991cf91907e3eb962397 *07 Black Throated Wind.flac
a7c2cc9d4070ed0103b1b51066cad515 *08 Bird Song.flac
035e3f380235218611ee556afdfbbc0c *09 Box Of Rain.flac
75a5425a2571dccc482871334e3e8708 *10 Shakedown Street.flac
b7309ac2a6d5e3fb62a460b46f34c503 *11 Cassidy.flac
859c49cdf5e459c5ea49f2a91244345a *12 Goin' Down The Road Feeling Bad.flac
da853bea4d6854b8253603b117990c03 *13 Drums.flac
70a407a2cc3bfd29308806515189e701 *14 Space.flac
8844eee2cfd6123b8861eb171091bf80 *15 The Wheel.flac
7d8e9d523c60f66e1006dc554f36e164 *16 All Along The Watchtower.flac
121ab26359764542adcdc34aa00a8ca6 *17 Attics Of My Life.flac
ee5c707450f6c6ea9c4aeef387491858 *18 Around And Around.flac
056cacbaa0958dcb8e1fbcea7558dc26 *19 Brokedown Palace.flac

Comments
Add Comment
Other Sources (comments)
unknown audience> bootleg... (1) FOB Schoeps... (1) PMB Microphones FOB> Sony... (0) flac16; AKG... (0) flac16; AUD:... (0) flac16/48kHz; Rich... (0)
Date User Comment