Browse Collections Artists Sources   Search Dates

Add Show    List Management    Help


Grateful Dead 12/26/81
Oakland Auditorium Arena, Oakland, CA
Comments Add Comment    Source Collectors    Add to Collection    Add to Want List    History
Source # 136898 Other Sources
Entered by Matt Vernon
Checksums flac-md5 , ffp
Disc Counts 0 / 0
Media Size Compressed: 1.14 GB (1219784704 bytes)
Uncompressed: 1.76 GB (1891201920 bytes)
Date Circulated
Date Added
09/17/2016
09/17/2016
Source Summary flac16; AUD: Nakamichi CM300/CP4 shotguns > Sony TC-D5M > Maxell XL-II (S1 + Encore) and Sony UCX-S (S2), FOB recording by Brian Schley. Transfer: MAC > Nakamichi CR-5A > Edirol FA-66 > Wavelab 2448 > R8Brain SRC > Wavelab (adding 16-bit patches) > CD-Wave > TLH > FLAC 1644 tagged. Transferred by Andrew F. 09/2016 
  Archive
Source Information - Download Text | Download Zip
GRATEFUL DEAD
Auditorium Arena
Oakland CA
12-26-1981

s1t01 crowd
s1t02 Alabama Getaway >
s1t03 Promised Land
s1t04 Candyman
s1t05 Little Red Rooster
s1t06 Big Boss Man
s1t07 Me & My Uncle >
s1t08 Big River
s1t09 Birdsong
s1t10 It's All Over Now
s1t11 Big Railroad Blues
s1t12 Let it Grow

s2t01 Scarlet Begonias >
s2t02 Fire on the Mountain
s2t03 Estimated Prophet >
s2t04 He Gone >
s2t05 Drums >
s2t06 Space >
s2t07 Jam >
s2t08 Truckin' >
s2t09 Black Peter >
s2t10 Around & Around >
s2t11 One More Saturday Night
s2t12 Encore: Don't Ease Me In

AUD: Nakamichi CM300/CP4 shotguns > Sony TC-D5M > Maxell XL-II
(S1 + Encore) and Sony UCX-S (S2), FOB recording by Brian Schley.

Transfer: MAC > Nakamichi CR-5A > Edirol FA-66 > Wavelab 2448 >
R8Brain SRC > Wavelab (adding 16-bit patches) > CD-Wave > TLH >
FLAC 1644 tagged. Transferred by Andrew F. 09/2016

Note: Some close-up clap-n-yak, not too bad. ID-120368 patches;
Scarlet 0:00 > 0:19, crowd at end of FOTM 12:23 > Estimated 0:03,
Drums 1:30 > Space 2:30. ID-10533 patch, He's Gone 10:10 > 10:41.
Thanks Jon Pasternak & Charlie McGuth for organizing this project!

    length     expanded size    cdr  WAVE problems  fmt   ratio  filename
     0:41.52        7354748 B   ---   --   ---xx   flac  0.5669  gd1981-12-26s1t01.flac
     4:34.07       48350108 B   ---   --   ---xx   flac  0.6641  gd1981-12-26s1t02.flac
     4:14.23       44859740 B   ---   --   ---xx   flac  0.6620  gd1981-12-26s1t03.flac
     6:32.72       69318188 B   ---   --   ---xx   flac  0.6364  gd1981-12-26s1t04.flac
     8:21.72       88545788 B   ---   --   ---xx   flac  0.6445  gd1981-12-26s1t05.flac
     4:23.09       46414412 B   ---   --   ---xx   flac  0.6620  gd1981-12-26s1t06.flac
     2:57.69       31385132 B   ---   --   ---xx   flac  0.6676  gd1981-12-26s1t07.flac
     5:26.47       57616988 B   ---   --   ---xx   flac  0.6722  gd1981-12-26s1t08.flac
    11:20.61      120095516 B   ---   --   ---xx   flac  0.6381  gd1981-12-26s1t09.flac
     8:44.12       92461868 B   ---   --   ---xx   flac  0.6749  gd1981-12-26s1t10.flac
     4:26.31       46995356 B   ---   --   ---xx   flac  0.6626  gd1981-12-26s1t11.flac
    12:08.29      128487452 B   ---   --   ---xx   flac  0.6596  gd1981-12-26s1t12.flac
    10:45.15      113813324 B   ---   --   ---xx   flac  0.6671  gd1981-12-26s2t01.flac
    12:41.72      134409788 B   ---   --   ---xx   flac  0.6483  gd1981-12-26s2t02.flac
    11:49.08      125086460 B   ---   --   ---xx   flac  0.6639  gd1981-12-26s2t03.flac
    12:33.23      132883340 B   ---   --   ---xx   flac  0.6451  gd1981-12-26s2t04.flac
     9:04.14       95994572 B   ---   --   ---xx   flac  0.5814  gd1981-12-26s2t05.flac
    10:34.25      111896444 B   ---   --   ---xx   flac  0.5576  gd1981-12-26s2t06.flac
     7:06.59       75285212 B   ---   --   ---xx   flac  0.6464  gd1981-12-26s2t07.flac
     8:06.38       85819820 B   ---   --   ---xx   flac  0.6762  gd1981-12-26s2t08.flac
    10:34.47      111948188 B   ---   --   ---xx   flac  0.6134  gd1981-12-26s2t09.flac
     3:46.05       39878204 B   ---   --   ---xx   flac  0.6648  gd1981-12-26s2t10.flac
     4:32.42       48079628 B   ---   --   ---xx   flac  0.6787  gd1981-12-26s2t11.flac
     3:14.00       34221644 B   ---   --   ---xx   flac  0.6631  gd1981-12-26s2t12.flac
   178:41.07     1891201920 B                            0.6449  (24 files)

No errors occured.



Show Checksums
flac-md5
6f071d89a96af7b4ae8c33c9d39b71b6 *gd1981-12-26s1t01.flac
d0e73da1ee9ddb38faf3aaf3029e99ee *gd1981-12-26s1t02.flac
8754d1248a27ad533c2895ecbe36bdbe *gd1981-12-26s1t03.flac
8fafea13fb5d951b8fddb4fe05e1935f *gd1981-12-26s1t04.flac
d190a07bec2b4d51e90a77f9aaea1fe4 *gd1981-12-26s1t05.flac
add8affbd80d7dde98b2e06bfc427615 *gd1981-12-26s1t06.flac
44835442a010344a5d25fc32209c2663 *gd1981-12-26s1t07.flac
844114458b28981512f28598dda76677 *gd1981-12-26s1t08.flac
5b568660671a4bbebdd0a81aa1dcee26 *gd1981-12-26s1t09.flac
3d2b3b244ddfd28fb957df1c0ea9d790 *gd1981-12-26s1t10.flac
a14d8bc45a90846dec5cebc85b07f158 *gd1981-12-26s1t11.flac
8677e9c9370fa0a10a35ec134d41568f *gd1981-12-26s1t12.flac
85ef5c3fc3571ce6b907def502096914 *gd1981-12-26s2t01.flac
1f45867c96980e593381cfbafce7e92b *gd1981-12-26s2t02.flac
0cd1903d30ec46b552ff41a7e3b56e34 *gd1981-12-26s2t03.flac
3aae13747ee55fda5ed122e3a2b68c06 *gd1981-12-26s2t04.flac
9cb6f10bc87101d5811f86f75d11cc89 *gd1981-12-26s2t05.flac
190f2f0c564df4c90005fd397f652637 *gd1981-12-26s2t06.flac
3b46c9b2c2e8eeb6fa441223b26c30bf *gd1981-12-26s2t07.flac
15ca359ad7880e9c68fa8b74ea1a6647 *gd1981-12-26s2t08.flac
819297720a3df1492da56c76b78965fc *gd1981-12-26s2t09.flac
72860056a71842d56f6a34437af05612 *gd1981-12-26s2t10.flac
d4f67b5794e5008274065f8da8b7bdd1 *gd1981-12-26s2t11.flac
9a524fabca0a62a39dc643183b7c4721 *gd1981-12-26s2t12.flac
ffp
gd1981-12-26s1t01.flac:949964bcb3105c2532b49141c9953d9e
gd1981-12-26s1t02.flac:bfac53ba8496402d729effbcaecd59ee
gd1981-12-26s1t03.flac:64f2c062f73655ba7804d126e54aa9d4
gd1981-12-26s1t04.flac:c651b235a7f14429e50de0f54dedbf78
gd1981-12-26s1t05.flac:5c44a63c649f5268ab850a1f20c6290f
gd1981-12-26s1t06.flac:5fc715d0395f80fb53444d88c8c487ca
gd1981-12-26s1t07.flac:ec7987678909501331c94c7745d42013
gd1981-12-26s1t08.flac:ec7c477e813357eaecaa61e96254a36d
gd1981-12-26s1t09.flac:de9cfc1f1a93f80b4c10f3037b5e7793
gd1981-12-26s1t10.flac:d873a534d4a8df4a97f38b712b7edf45
gd1981-12-26s1t11.flac:ab59f1340a94674407a90439b985d584
gd1981-12-26s1t12.flac:7a37fea8657718e7a5a2b5f73fcba041
gd1981-12-26s2t01.flac:24c6620e8c28a690537a8db42c583c6a
gd1981-12-26s2t02.flac:23fabf8c89c6be6d24fe18b7bf7ae15a
gd1981-12-26s2t03.flac:6d371bc07338cba000c057a16bee16bd
gd1981-12-26s2t04.flac:3bc9ab04cb8dfffd5cf3c00b9fe150f0
gd1981-12-26s2t05.flac:3e069566cb1ad6d390d132ae487d794b
gd1981-12-26s2t06.flac:65373f9938d54da4d8f557105e71e2ca
gd1981-12-26s2t07.flac:87fef7a90726e0f5c58984bfa4b289b7
gd1981-12-26s2t08.flac:e4022a354f8bfb9dde9cb69cd9d6683d
gd1981-12-26s2t09.flac:b3a52f17b0844d663a3db2e790e7f529
gd1981-12-26s2t10.flac:83a64efe463c7a0bfb808572dc994905
gd1981-12-26s2t11.flac:9298f2c8f8cc9c7a108e715684943cde
gd1981-12-26s2t12.flac:6eb7185546c580f4417d50244f1fd48f

Comments
Add Comment
Other Sources (comments)
Recording by Bob Menke.... (1) flac16; Recording by... (2) flac16 Set 1: SBD ->... (2) flac16; Recording... (0) flac16; Audience... (0)
Date User Comment