Browse Collections Artists Sources   Search Dates

Add Show    List Management    Help


Grateful Dead 09/22/87
The Spectrum, Philadelphia, PA
Comments Add Comment    Source Collectors    Add to Collection    Add to Want List    History
Source # 137001 Other Sources
Entered by Matt Vernon
Checksums flac-md5 , ffp
Disc Counts 0 / 0
Media Size Compressed: 1.39 GB (1488977920 bytes)
Uncompressed: 1.48 GB (1587951416 bytes)
Date Circulated
Date Added
10/09/2016
10/09/2016
Source Summary DTS-Audio-CD 5.1 Mix; SBD (shnid=134676) Recording Info: SBD -> Cassette Master -> Cassette (TDK MA-R90); Transfer Info: Cassette Master (Nakamichi DR-1) -> Sound Devices 744T (24bit/48k) -> Adobe Audition v3.0 -> Samplitude Professional v11.03 -> FLAC/16; + AUD (shn id 90540) taper: Joe D'Amico nak 300 mics w/cp4 shotguns > sony d-5 nak dragon tape deck > sony sbm1 > creative extigy soundcard > cool edit pro> flac frontend - dts mixing by Kevin Tobin 
  Archive
Source Information - Download Text | Download Zip
Grateful Dead
The Spectrum,
Philadelphia, PA
September 22, 1987

DTS-Audio-CD 5.1 Mix

Set 1:
d1t01 - Hey Pocky Way
d1t02 - Althea ->
d1t03 - Little Red Rooster
d1t04 - When Push Comes To Shove
d1t05 - When I Paint My Masterpiece
d1t06 - Ramble On Rose
d1t07 - Addams Family Tuning
d1t08 - Cassidy ->
d1t09 - Deal

Set 2:
d2t01 - Gimme Some Lovin' *
d2t02 - China Cat Sunflower ->
d2t03 - I Know You Rider ->
d2t04 - Samson And Delilah
d2t05 - Terrapin Station ->
d2t06 - Drums ->
d3t01 - Space ->
d3t02 - Two Soldiers Jam ->
d3t03 - The Wheel ->
d3t04 - Truckin' ->
d3t05 - Stella Blue ->
d3t06 - Sugar Magnolia

Encore:
d3t07 - It's All Over Now, Baby Blue

Jerry Garcia - Guitar
Bob Weir - Guitar
Brent Mydland - Keyboards
Phil Lesh - Bass
Bill Kreutzmann - Drums
Mickey Hart - Drums
Spencer Davis - Guitar, Vocals *

Audio Information:
Original SBD (shnid = 17028)

Recording Info:
SBD -> Cassette Master -> Cassette (TDK MA-R90)

Transfer Info:
Cassette Master (Nakamichi DR-1) -> Sound Devices 744T (24bit/48k) ->
Adobe Audition v3.0 -> Samplitude Professional v11.03 -> FLAC/16
All Transfers and Mastering By Charlie Miller

Original AUD (shnid = 90540)

taper : Joe D'Amico ''aka'' Joebeacon
nak 300 mics w/cp4 shotguns > sony d-5
nak dragon tape deck > sony sbm1 > creative extigy
soundcard > cool edit pro> flac frontend

Both SBD & AUD were patched with:
AUD (shnid = 134854)

Source:
Nakamichi CM-300s/Shotguns -> Sony Walkman Pro/Maxell MX 90 -> JVC TD-W354 ->
Zoom H6 96/24 WAV -> Audacity -> FLAC 96/24. Only posting in 96/24 to
keep the sound quality up, feel free to convert it if you like, I hear there are
open-source CD-burners that convert on the fly.

Recorded & Seeded by: bltz
---------------------------------------------------------
- Mixed by [email protected]
- FLAC conversion 09-OCT-2016 - Trader Little Helper
- Tagged 09-OCT-2016 - Tag&Rename
---------------------------------------------------------
More On DTS

Today's audio standards are moving towards multi-channel
sound, like DTS and Dolby Digital. While the Audio-CD
standard (Red Book) hasn't changed to accommodate these
new sound formats, it is still possible to go around the
specification and to put a 5.1 surround recording on a
regular Audio-CD. To play a DTS-Audio-CD you must connect
your DVD/CD player via a digital cable (optical or coaxial)
to your DTS Dolby-Digital receiver. It is not 100% sure
that your receiver will recognize a DTS-Audio CD, so the
first time you're trying to playback a DTS-Audio-CD you
must do a test to determine if it can. Begin with the
volume very low, start the disc and raise the volume
gradually. NEVER listen to a DTS-Audio-CD through the
analog audio outputs of your CD/DVD player.

Burning Instructions

Burn them the absolute same way as you would burn any
normal Audio-CD from FLAC files.

Brokedown House Production

    length     expanded size    cdr  WAVE problems  fmt   ratio  filename
     6:45.10       71465564 B   ---   --   -----    wav  1.0000  gd1987-09-22d1t01.wav
     7:24.21       78371036 B   ---   --   -----    wav  1.0000  gd1987-09-22d1t02.wav
     8:41.45       92010284 B   ---   --   -----    wav  1.0000  gd1987-09-22d1t03.wav
     6:42.16       70950476 B   ---   --   -----    wav  1.0000  gd1987-09-22d1t04.wav
     4:42.07       49761308 B   ---   --   -----    wav  1.0000  gd1987-09-22d1t05.wav
     8:03.51       85321196 B   ---   --   -----    wav  1.0000  gd1987-09-22d1t06.wav
     0:43.68        7745180 B   ---   --   -----    wav  1.0000  gd1987-09-22d1t07.wav
     6:21.28       67274300 B   ---   --   -----    wav  1.0000  gd1987-09-22d1t08.wav
     7:28.66       79182476 B   ---   --   -----    wav  1.0000  gd1987-09-22d1t09.wav
     6:33.71       69492236 B   ---   --   -----    wav  1.0000  gd1987-09-22d2t01.wav
     5:46.39       61126172 B   ---   --   -----    wav  1.0000  gd1987-09-22d2t02.wav
     6:11.15       65479724 B   ---   --   -----    wav  1.0000  gd1987-09-22d2t03.wav
     7:17.18       77129180 B   ---   --   -----    wav  1.0000  gd1987-09-22d2t04.wav
    12:28.72      132116588 B   ---   --   -----    wav  1.0000  gd1987-09-22d2t05.wav
     6:40.21       70609436 B   ---   --   -----    wav  1.0000  gd1987-09-22d2t06.wav
     3:28.17       36731228 B   ---   --   -----    wav  1.0000  gd1987-09-22d3t01.wav
     5:48.42       61486028 B   ---   --   -----    wav  1.0000  gd1987-09-22d3t02.wav
     4:43.08       49940060 B   ---   --   -----    wav  1.0000  gd1987-09-22d3t03.wav
     6:23.18       67603580 B   ---   --   -----    wav  1.0000  gd1987-09-22d3t04.wav
     8:23.56       88860956 B   ---   --   -----    wav  1.0000  gd1987-09-22d3t05.wav
    12:03.13      127567820 B   ---   --   -----    wav  1.0000  gd1987-09-22d3t06.wav
     7:20.47       77726588 B   ---   --   -----    wav  1.0000  gd1987-09-22d3t07.wav
   150:01.74     1587951416 B                            1.0000  (22 files)



Show Checksums
flac-md5
67f2a52cec6c3975cff62ed715dd0ab6 *gd1987-09-22d1t01.flac
e51ef79c72399769eaa41f8e28c2c3fc *gd1987-09-22d1t02.flac
7b57183aa640d249dac64341564c02f3 *gd1987-09-22d1t03.flac
87f7af2e49df62ef861326106b9e0443 *gd1987-09-22d1t04.flac
74d80cb07e13924783f283aad193c95c *gd1987-09-22d1t05.flac
5c12bf4a95a716fd40b43c742d66c24e *gd1987-09-22d1t06.flac
fb08393d1625fe28806147c8b6999240 *gd1987-09-22d1t07.flac
631ad83095ea08893e7a3a2461da0fd7 *gd1987-09-22d1t08.flac
a5df373287b1db8cfebb9f16887c6ffa *gd1987-09-22d1t09.flac
d24d06445a9896904f4915340d78299d *gd1987-09-22d2t01.flac
0c744160d4fdd25fc54669f2279f3dc9 *gd1987-09-22d2t02.flac
cf522149e73340ad5bb8dade5a4ca106 *gd1987-09-22d2t03.flac
979721b65d40fd2654dcef509097c7c0 *gd1987-09-22d2t04.flac
5efa6c55c76681a0a04555d924e17046 *gd1987-09-22d2t05.flac
1218912e544a2032eba6a2f5bb5e049e *gd1987-09-22d2t06.flac
16c953af4c38870dae679cc6d13e1303 *gd1987-09-22d3t01.flac
1d99039626379b6bf166c72ad1e9c8d9 *gd1987-09-22d3t02.flac
07b61606d9d60f6f70996441009d7156 *gd1987-09-22d3t03.flac
0d3c9c15117986606673c9b9294147c0 *gd1987-09-22d3t04.flac
cdeed919c76ca17776aefd399645d8c5 *gd1987-09-22d3t05.flac
72c5d349effc420d8bc8fc357e2e05fb *gd1987-09-22d3t06.flac
f1e523da8396ba53194b5231a0200f8d *gd1987-09-22d3t07.flac
ffp
gd1987-09-22d1t01.flac:de5f447b97c86783f731ffd94840b436
gd1987-09-22d1t02.flac:cd8286d90b27f47b9bf7183f820d6609
gd1987-09-22d1t03.flac:22b59dc77a9b7d0c062f93cee107468e
gd1987-09-22d1t04.flac:995ec6269809d6da67e4b491a57d0a64
gd1987-09-22d1t05.flac:c1398c3d1a14e129ea2b14245cc496a2
gd1987-09-22d1t06.flac:af0ca49f1671a7144ace609747e141be
gd1987-09-22d1t07.flac:45589744eb26fe2cabe924b75da3fbcd
gd1987-09-22d1t08.flac:db53bf7e47e7df36efdd62798a1ce56f
gd1987-09-22d1t09.flac:0cab48a3e415cc02b985a302f5b48739
gd1987-09-22d2t01.flac:677c8ff3ca9e2f0d5d6a80c141fdd8d1
gd1987-09-22d2t02.flac:3054d24bbc2c2d8e1261f308cf97c88f
gd1987-09-22d2t03.flac:fa202eed1992f6db6a2330345dd2af7e
gd1987-09-22d2t04.flac:19505471fefd2e17abb11ff44e113998
gd1987-09-22d2t05.flac:d83b262c1279977fb4eea15ad040bd57
gd1987-09-22d2t06.flac:5afe83637b53540eda919a81b9333562
gd1987-09-22d3t01.flac:a0e849994e3dbf016ce73a9a9bb14330
gd1987-09-22d3t02.flac:426deb9e504e924b1da47ed2b976a5e8
gd1987-09-22d3t03.flac:fce341d83cc193a5141cd7b91b50f005
gd1987-09-22d3t04.flac:ba34e6432a4ba7e1dd8fc3a60c4e1a16
gd1987-09-22d3t05.flac:9ef5f04c6dec499e235acb84f6afd41d
gd1987-09-22d3t06.flac:c976568117e9b55e61094ece8457561c
gd1987-09-22d3t07.flac:4349f9753b281518e6e11c7399751c07

Comments
Add Comment
Other Sources (comments)
SBD>C>DAT>CDR>EAC>MKW>SHN... (3) Cleanup by Chris Frisco of... (4) flac16; taper : Joe... (1) flac16; Set 2 Only... (0) flac16; Recording... (0) flac24; Source:... (0) flac16; (original... (0) flac16; Matrix 2... (0) flac16/48kHz; 5.1... (0) flac24/44.1kHz;... (0) flac16; Recording... (2)
Date User Comment