Browse Collections Artists Sources   Search Dates

Add Show    List Management    Help


Grateful Dead 02/10/89
Great Western LA Forum, Inglewood, CA
Comments Add Comment    Source Collectors    Add to Collection    Add to Want List    History
Source # 137004 Other Sources
Entered by Matt Vernon
Checksums ffp , flac-md5
Disc Counts 0 / 0
Media Size Compressed: 3.36 GB (3610737557 bytes)
Uncompressed: 5.16 GB (5538563596 bytes)
Date Circulated
Date Added
10/09/2016
10/10/2016
Source Summary flac24; Recording Info: SBD -> Cassette Master (TDK SA-X100); Transfer Info: Cassette Master (Nakamichi CR-7A) -> Tascam DA-3000 (DSF 1-bit/5.8 MHz) -> KORG AudioGate 4 -> Samplitude Professional v11.2.1 -> FLAC (24bit/96k); All Transfers and Mastering By Charlie Miller 
  Archive
Source Information - Download Text | Download Zip
Grateful Dead - February 10, 1989
Great Western Forum - Inglewood, CA

Recording Info:
SBD -> Cassette Master (TDK SA-X100)

Transfer Info:
Cassette Master (Nakamichi CR-7A) -> Tascam DA-3000 (DSF 1-bit/5.8 MHz) ->
KORG AudioGate 4 -> Samplitude Professional v11.2.1 -> FLAC (24bit/96k)
(1 Disc FLAC)

All Transfers and Mastering By Charlie Miller
[email protected]
October 7, 2016

Set 1:
01 - Tuning
02 - Feel Like A Stranger ->
03 - Franklin's Tower ->
04 - Walkin' Blues
05 - To Lay Me Down
06 - When I Paint My Masterpiece
07 - Friend Of The Devil
08 - Let It Grow

Set 2:
09 - Tuning
10 - Just A Little Light
11 - Truckin' ->
12 - Crazy Fingers ->
13 - Playing In The Band ->
14 - Drums ->
15 - Space ->
16 - The Wheel ->
17 - Gimme Some Lovin' ->
18 - Wharf Rat ->
19 - Sugar Magnolia

Encore:
20 - It's All Over Now, Baby Blue


SHNTOOL OUTPUT:
    length     expanded size    cdr  WAVE problems  fmt   ratio  filename
     2:18.716      79900622 B   cxx   --   ---xx   flac  0.6181  01 Tuning.flac
     7:32.564     260677154 B   cxx   --   ---xx   flac  0.6553  02 Feel Like A Stranger.flac
     9:32.944     330015818 B   cxx   --   ---xx   flac  0.6576  03 Franklin's Tower.flac
     7:18.891     252801500 B   cxx   --   ---xx   flac  0.6510  04 Walkin' Blues.flac
     9:55.015     342728876 B   cxx   --   ---xx   flac  0.6431  05 To Lay Me Down.flac
     5:51.869     202676366 B   cxx   --   ---xx   flac  0.6561  06 When I Paint My Masterpiece.flac
     8:14.784     284995844 B   cxx   --   ---xx   flac  0.6563  07 Friend Of The Devil.flac
    12:06.379     418394492 B   cxx   --   ---xx   flac  0.6552  08 Let It Grow.flac
     2:54.899     100741862 B   cxx   --   ---xx   flac  0.6178  09 Tuning.flac
     8:31.503     294625706 B   cxx   --   ---xx   flac  0.6459  10 Just A Little Light.flac
     7:58.413     275565728 B   cxx   --   ---xx   flac  0.6680  11 Truckin'.flac
     8:22.512     289447166 B   cxx   --   ---xx   flac  0.6564  12 Crazy Fingers.flac
    14:44.612     509536586 B   cxx   --   ---xx   flac  0.6552  13 Playing In The Band.flac
     6:46.879     234362390 B   cxx   --   ---xx   flac  0.6276  14 Drums.flac
     8:09.287     281829242 B   cxx   --   ---xx   flac  0.6250  15 Space.flac
     5:30.597     190423706 B   cxx   --   ---xx   flac  0.6527  16 The Wheel.flac
     4:53.208     168887726 B   cxx   --   ---xx   flac  0.6666  17 Gimme Some Lovin'.flac
    10:24.632     359787926 B   cxx   --   ---xx   flac  0.6628  18 Wharf Rat.flac
    10:33.754     365042348 B   cxx   --   ---xx   flac  0.6598  19 Sugar Magnolia.flac
     8:34.102     296122538 B   cxx   --   ---xx   flac  0.6567  20 It's All Over Now, Baby Blue.flac
   160:15.560    5538563596 B                            0.6519  (20 files)


Show Checksums
ffp
01 Tuning.flac:8baf13334ad1c1b5a9e5ad7066662e80
02 Feel Like A Stranger.flac:4ba752a172c4d4c7f77b082ad2bf6e3d
03 Franklin's Tower.flac:b3da382162ab0bebbed364d3070148c3
04 Walkin' Blues.flac:4828e8d519816901cdc97558bb2807b1
05 To Lay Me Down.flac:ca9f3d8c5a0e5dba34945e3766b4b3d4
06 When I Paint My Masterpiece.flac:9641996a897ee0ea64567cbbdbe5044e
07 Friend Of The Devil.flac:9fccab69b35ea644362d4d9e44eb5708
08 Let It Grow.flac:6d427b7ed307c9429e75abb88d519415
09 Tuning.flac:b30e7b559c416fb9476e241444268e80
10 Just A Little Light.flac:de7d988517413ef633320515531f5e36
11 Truckin'.flac:bde405e0be2b07e841fdfec4d47e7939
12 Crazy Fingers.flac:86c19b7906cc60c898e25daef345c314
13 Playing In The Band.flac:8dc30163fc423a2c4290c90b72206ba4
14 Drums.flac:9be5ed7e512cef3758621e5c4234a098
15 Space.flac:a23f689c230561ed7e79229bbe439990
16 The Wheel.flac:8cb792c225a766260c3994784f155334
17 Gimme Some Lovin'.flac:2604bff4e70f49ad69238b62d9b1a5dd
18 Wharf Rat.flac:92b751e16ce287a0d6b933f5e0de9606
19 Sugar Magnolia.flac:f0e974bf925cb64a71833dc3849fb584
20 It's All Over Now, Baby Blue.flac:87a505439737a775fd994b18e98363bc
flac-md5
2336cb12c5e91054b982a52e8e5efe99 *01 Tuning.flac
72e17db17169e9cb2755065ceb216cd3 *02 Feel Like A Stranger.flac
6fb3dc80f0db5d3b4df08700b1f4f98c *03 Franklin's Tower.flac
a55e8c7819fd7a1decba932fc624bb8e *04 Walkin' Blues.flac
7e6da37ba34e59ba9242f7fd52ec156a *05 To Lay Me Down.flac
0cbd744dcbe5402fd4fbdecac96beb3b *06 When I Paint My Masterpiece.flac
19e5788e0bf9bca67725322a0d7f4cf7 *07 Friend Of The Devil.flac
87a504c9579e1c57b599f634c3eba66b *08 Let It Grow.flac
8072c23652fbe969c9f544bf999c58d8 *09 Tuning.flac
ebafbd29d001fcad2bc68c88d317abaf *10 Just A Little Light.flac
250d86b6dd5e2907f976e370ee2d01e5 *11 Truckin'.flac
21cc3ddd6ab2fc4946def4cde3398dbe *12 Crazy Fingers.flac
03bfeb32e33c0cc5d8a7dfcbb277bb65 *13 Playing In The Band.flac
ebbcbe685ac10f91ae9540d796eb29de *14 Drums.flac
40d5991104e6b55a9f5679050c1270e1 *15 Space.flac
816ddbd7e05fadd0def54c8576bfe544 *16 The Wheel.flac
73862eb5fb9146a8683bb1b79b7a9f69 *17 Gimme Some Lovin'.flac
f96e6db07a46c89ffd8284460ea9b92c *18 Wharf Rat.flac
08ca0ff1f130fed5de5a24f6cd2328cc *19 Sugar Magnolia.flac
d676fb45609d8b413ed2ff8ffa633e42 *20 It's All Over Now, Baby Blue.flac

Comments
Add Comment
Other Sources (comments)
Source: Master Cassette... (0) flac16; Seamless fix... (1) flac24/96; Senn... (1) flac16; Senn MKE2002... (0) flac24/48; Senn... (0) flac16; AT835B's- AT... (0) flac16; Recording... (1) flac16; Source Info:... (0) flac16; Recording... (0)
Date User Comment