Browse Collections Artists Sources   Search Dates

Add Show    List Management    Help


Grateful Dead 02/12/89
Great Western LA Forum, Inglewood, CA
Comments Add Comment    Source Collectors    Add to Collection    Add to Want List    History
Source # 137005 Other Sources
Entered by Matt Vernon
Checksums ffp , flac-md5
Disc Counts 0 / 0
Media Size Compressed: 3.27 GB (3509557471 bytes)
Uncompressed: 5.02 GB (5386045084 bytes)
Date Circulated
Date Added
10/09/2016
10/10/2016
Source Summary flac24; Recording Info: SBD -> Cassette Master (TDK SA-X100); Transfer Info: Cassette Master (Nakamichi CR-7A) -> Tascam DA-3000 (DSF 1-bit/5.8 MHz) -> KORG AudioGate 4 -> Samplitude Professional v11.2.1 -> FLAC (24bit/96k); All Transfers and Mastering By Charlie Miller 
  Archive
Source Information - Download Text | Download Zip
Grateful Dead - February 12, 1989
Great Western Forum - Inglewood, CA

Recording Info:
SBD -> Cassette Master (TDK SA-X100)

Transfer Info:
Cassette Master (Nakamichi CR-7A) -> Tascam DA-3000 (DSF 1-bit/5.8 MHz) ->
KORG AudioGate 4 -> Samplitude Professional v11.2.1 -> FLAC (24bit/96k)
(1 Disc FLAC)

All Transfers and Mastering By Charlie Miller
[email protected]
October 7, 2016

Notes:
-- How Long Blues and Gimme Some Lovin' with Spencer Davis
-- Iko thru Memphis Blues and NFA -> Heaven's Door with Bob Dylan
-- The Other One with Kodo drummer

Set 1:
01 - Tuning
02 - Cold Rain And Snow
03 - Hell In A Bucket
04 - Row Jimmy
05 - Beat It On Down The Line ->
06 - Promised Land
07 - West L.A. Fadeaway
08 - How Long Blues
09 - Gimme Some Lovin'

Set 2:
10 - Tuning
11 - Iko Iko
12 - Monkey And The Engineer
13 - Alabama Getaway
14 - Dire Wolf
15 - Cassidy
16 - Stuck Inside Of Mobile With The Memphis Blues Again ->
17 - Drums ->
18 - Space ->
19 - The Other One ->
20 - Stella Blue ->
21 - Foolish Heart

Encore:
22 - Not Fade Away ->
23 - Knockin' On Heaven's Door


SHNTOOL OUTPUT:
    length     expanded size    cdr  WAVE problems  fmt   ratio  filename
     1:06.983      38582054 B   cxx   --   ---xx   flac  0.6279  01 Tuning.flac
     5:43.193     197679482 B   cxx   --   ---xx   flac  0.6657  02 Cold Rain And Snow.flac
     9:10.392     317025956 B   cxx   --   ---xx   flac  0.6608  03 Hell In A Bucket.flac
    12:02.736     416296100 B   cxx   --   ---xx   flac  0.6538  04 Row Jimmy.flac
     3:13.264     111319952 B   cxx   --   ---xx   flac  0.6651  05 Beat It On Down The Line.flac
     4:50.367     167251220 B   cxx   --   ---xx   flac  0.6598  06 Promised Land.flac
     9:10.491     317082638 B   cxx   --   ---xx   flac  0.6470  07 West LA Fadeaway.flac
     4:43.547     163323392 B   cxx   --   ---xx   flac  0.6595  08 How Long Blues.flac
     8:19.810     287890628 B   cxx   --   ---xx   flac  0.6499  09 Gimme Some Lovin'.flac
     2:59.770     103547444 B   cxx   --   ---xx   flac  0.6300  10 Tuning.flac
     7:35.698     262482176 B   cxx   --   ---xx   flac  0.6726  11 Iko Iko.flac
     3:33.127     122760956 B   cxx   --   ---xx   flac  0.6708  12 Monkey And The Engineer.flac
     5:08.269     177562748 B   cxx   --   ---xx   flac  0.6675  13 Alabama Getaway.flac
     4:19.062     149219912 B   cxx   --   ---xx   flac  0.6670  14 Dire Wolf.flac
     7:25.610     256671218 B   cxx   --   ---xx   flac  0.6653  15 Cassidy.flac
     8:25.486     291159710 B   cxx   --   ---xx   flac  0.6794  16 Stuck Inside Of Mobile With The Memphis Blues Again.flac
    11:14.495     388509428 B   cxx   --   ---xx   flac  0.6372  17 Drums.flac
     8:32.035     294932162 B   cxx   --   ---xx   flac  0.6141  18 Space.flac
     5:49.356     201228920 B   cxx   --   ---xx   flac  0.6438  19 The Other One.flac
     7:56.818     274646948 B   cxx   --   ---xx   flac  0.6291  20 Stella Blue.flac
     8:11.116     282882944 B   cxx   --   ---xx   flac  0.6450  21 Foolish Heart.flac
     9:06.772     314940902 B   cxx   --   ---xx   flac  0.6448  22 Not Fade Away.flac
     7:12.375     249048194 B   cxx   --   ---xx   flac  0.6438  23 Knockin' On Heaven's Door.flac
   155:50.771    5386045084 B                            0.6516  (23 files)


Show Checksums
ffp
01 Tuning.flac:18ea60ec6bfa2f7692c6c7f1af028c68
02 Cold Rain And Snow.flac:a11a07ada2bef194dd4dabdc55f3edea
03 Hell In A Bucket.flac:9f890a16e9b26ca827316f4dafa90728
04 Row Jimmy.flac:ae32c565de4c53e1d7b29afaef7d07c0
05 Beat It On Down The Line.flac:08efbdf59db7f384b1a3e0611a7fc67d
06 Promised Land.flac:350fe670705ca9c05446452dd8f8ede7
07 West LA Fadeaway.flac:e15f2747e79f292d37570bf6f4eb3b44
08 How Long Blues.flac:b050ab3ca85a14c469fdd68740c37c5c
09 Gimme Some Lovin'.flac:c5f71118646b671f6fbdd236816e15bf
10 Tuning.flac:d3f807e42e6c6a5307e2d9aed96a7542
11 Iko Iko.flac:4f7bd722f15a610985f888d31122d81b
12 Monkey And The Engineer.flac:65bc6786549f92616bcad786fa51dff0
13 Alabama Getaway.flac:377f0f7da0f12d72afd735e55b2eb279
14 Dire Wolf.flac:73d882fc1bbbdb6cbe1f9765e64dc8d1
15 Cassidy.flac:d26c5811061c532a72c9e9f68969336f
16 Stuck Inside Of Mobile With The Memphis Blues Again.flac:0812d1b75a4024f3b2a0a86199cbea6a
17 Drums.flac:21fdc594c3bcdb98f4c35691c2a545f7
18 Space.flac:11e60febcee8707482d1259c36ee3b3e
19 The Other One.flac:a66db996ada7e215eec782ed11dd2452
20 Stella Blue.flac:d9ab7b4448a935426f4f114a5486f037
21 Foolish Heart.flac:64305dbdab15bedece609fcf1693188b
22 Not Fade Away.flac:e9ddaac1f333fc8d4964416ae11be41a
23 Knockin' On Heaven's Door.flac:762c8848c054beae026c0538d64a1dec
flac-md5
99ed2b1b069425d1403ddc6efdd86dd0 *01 Tuning.flac
05dd911e97b34ec44c4ebe951b04b3ad *02 Cold Rain And Snow.flac
bbfc169b27acb0c9a07bcec469db2e0a *03 Hell In A Bucket.flac
dbfdb0b0f31b07d60e0bb847a1e4e057 *04 Row Jimmy.flac
e6e9193c0a935b616a734182df3a9aa2 *05 Beat It On Down The Line.flac
d0874aa6b1a77cc3501ee31edc71115d *06 Promised Land.flac
a4a018aba0cfce6c1dde44190b324136 *07 West LA Fadeaway.flac
f1d84a7597416dfa2a8f035a84424f50 *08 How Long Blues.flac
dfff36958e4f79aebc3c77305f06d68e *09 Gimme Some Lovin'.flac
b27d1172be35fa7fe7121708b8461335 *10 Tuning.flac
c7e3ce2505399d1c74c88db4bdea44df *11 Iko Iko.flac
c7367012247bfed2ddfc337d1eba00e6 *12 Monkey And The Engineer.flac
d35ccfb202954100b71da7d4838c03b8 *13 Alabama Getaway.flac
4536dad94edf982b99cc08dd773fe244 *14 Dire Wolf.flac
deb4eab7541766b2889d9cfd6fb60407 *15 Cassidy.flac
1f82bb3989e3d3ad1907618560a05d0c *16 Stuck Inside Of Mobile With The Memphis Blues Again.flac
e32a200c7fb9a51ac5ffad82c6bfab01 *17 Drums.flac
91c763b003d3675ec39558712c13d2b5 *18 Space.flac
0d289c6274ab83224a70592065d44835 *19 The Other One.flac
e525529dac97ab63c3c5eba2f717af7a *20 Stella Blue.flac
ff915f900d3f06a1364dd7dc30643fde *21 Foolish Heart.flac
2e5fa6437760e9f1436fe7ca542e6c8f *22 Not Fade Away.flac
ef3508280b9b91583242dd4f2fa5871e *23 Knockin' On Heaven's Door.flac

Comments
Add Comment
Other Sources (comments)
SBD; via Mike Lai (2) SBD> MC> DAT> CD> SHN (5) flac24; Sean Weber... (0) flac16; Sean Weber... (1) flac16; Recording... (0) flac16; AT835B's- AT... (0) flac16; Recording... (0) flac16; Set 1 Source... (0) flac16; Matrix 2... (0) DTS-Audio-CD 5.1... (0) flac16/48kHz; 5.1... (0) flac16; Recording... (0)
Date User Comment