Browse Collections Artists Sources   Search Dates

Add Show    List Management    Help


Grateful Dead 05/05/90
Cal State Dominguez Hills, Carson, CA
Comments Add Comment    Source Collectors    Add to Collection    Add to Want List    History
Source # 137021 Other Sources
Entered by Matt Vernon
Checksums ffp , flac-md5
Disc Counts 0 / 0
Media Size Compressed: 1.58 GB (1701605991 bytes)
Uncompressed: 2.31 GB (2475266850 bytes)
Date Circulated
Date Added
10/13/2016
10/13/2016
Source Summary flac24; Set 1 Recording Info: SBD -> Cassette Master (TDK SA-X90); Transfer Info: Cassette Master (Nakamichi CR-7A) -> Tascam DA-3000 (DSF 1-bit/5.8 MHz) -> KORG AudioGate 4 -> Samplitude Professional v11.2.1 -> FLAC (24bit/96k); All Transfers and Mastering By Charlie Miller 
  Archive
Source Information - Download Text | Download Zip
Grateful Dead - May 5, 1990
Dominguez Hills - Carson, CA
California State University

Recording Info:
SBD -> Cassette Master (TDK SA-X90)

Transfer Info:
Cassette Master (Nakamichi CR-7A) -> Tascam DA-3000 (DSF 1-bit/5.8 MHz) ->
KORG AudioGate 4 -> Samplitude Professional v11.2.1 -> FLAC (24bit/96k)
(1 Disc FLAC)

All Transfers and Mastering By Charlie Miller
[email protected]
October 7, 2016

Notes:
-- Set 1 only
-- This is not the mono FM source, this is a SBD Master

Set 1:
01 - Tuning
02 - Let The Good Times Roll
03 - The Race Is On
04 - Help On The Way ->
05 - Slipknot! ->
06 - Franklin's Tower
07 - Queen Jane Approximately
08 - Loser
09 - Me And My Uncle ->
10 - Mexicali Blues
11 - Loose Lucy
12 - One More Saturday Night


SHNTOOL OUTPUT:
    length     expanded size    cdr  WAVE problems  fmt   ratio  filename
     1:14.069      42663626 B   cxx   --   ---xx   flac  0.6504  01 Tuning.flac
     4:07.670     142657730 B   cxx   --   ---xx   flac  0.6883  02 Let The Good Times Roll.flac
     4:05.479     141396038 B   cxx   --   ---xx   flac  0.6796  03 The Race Is On.flac
     3:57.414     136750502 B   cxx   --   ---xx   flac  0.6744  04 Help On The Way.flac
     4:14.669     146689172 B   cxx   --   ---xx   flac  0.6765  05 Slipknot!.flac
    11:20.257     391828340 B   cxx   --   ---xx   flac  0.6848  06 Franklin's Tower.flac
     8:03.874     278711270 B   cxx   --   ---xx   flac  0.6911  07 Queen Jane Approximately.flac
     9:23.157     324378752 B   cxx   --   ---xx   flac  0.6861  08 Loser.flac
     2:51.375      98711864 B   cxx   --   ---xx   flac  0.7085  09 Me And My Uncle.flac
     6:22.779     220480964 B   cxx   --   ---xx   flac  0.6995  10 Mexicali Blues.flac
    10:34.595     365527028 B   cxx   --   ---xx   flac  0.6872  11 Loose Lucy.flac
     5:21.999     185471564 B   cxx   --   ---xx   flac  0.6971  12 One More Saturday Night.flac
    71:37.337    2475266850 B                            0.6874  (12 files)


Show Checksums
ffp
01 Tuning.flac:a25f993d41de52b75eb59cfa9a9c66f1
02 Let The Good Times Roll.flac:cde27e9f43f42d03f8dc9d8516c0ef04
03 The Race Is On.flac:a7642e9cb9a99d3e01667938f0f36731
04 Help On The Way.flac:6a45cbe29074bd964c476bda1c2e3b27
05 Slipknot!.flac:643d4ae38ba69249c07a3f3d813d93dc
06 Franklin's Tower.flac:bb82c0ecd0921fe861a5e923944cc71c
07 Queen Jane Approximately.flac:a8a3e3f8dd19c64fe41b2f28d7535df9
08 Loser.flac:fb41a5bd89834ae1e1bc5901ca01fa16
09 Me And My Uncle.flac:be319f8bfe3da2c64b421471ac5b1569
10 Mexicali Blues.flac:8ec3879b9c7547530d52e810302f8766
11 Loose Lucy.flac:c1a9578cf6f3216cb900cf90dfe983cc
12 One More Saturday Night.flac:fd6e315b59408d6b6d8d1790474664f4
flac-md5
573cde6c19a0f39b35134acad44f5553 *01 Tuning.flac
b2a3bec2afc3d65e8442434dd95ed35c *02 Let The Good Times Roll.flac
e6bc3629d215f48c0429401db06c1877 *03 The Race Is On.flac
155e60f0f38bbbeddc665e7fde6b1f92 *04 Help On The Way.flac
482a7867aff9fe2e4e45d8ccfd3301cc *05 Slipknot!.flac
2fdedf033060e8578537e1684eb678a9 *06 Franklin's Tower.flac
a71d5797d1c2c3751ef6095c11a40d68 *07 Queen Jane Approximately.flac
bc5e14bd601f61a636a686e8fffdd7f0 *08 Loser.flac
0baa55198e878503af7e0babb7b39538 *09 Me And My Uncle.flac
9cc49fd69f91197b146d65410212ec5a *10 Mexicali Blues.flac
7ef23d418a394d96c6030b821e295555 *11 Loose Lucy.flac
78cc614950cdfceaaeba87e0483f7e48 *12 One More Saturday Night.flac

Comments
Add Comment
Other Sources (comments)
DSBD> Cass> DAT> CD> EAC... (3) DSBD>DAT>CDR; Encore from... (4) flac16; Set 1 only,... (0) flac16; Source: (3)... (2) flac16; Source info:... (0) flac24; Source: B&K... (0) flac16; Set 1... (0) flac16; Bruel and... (0) flac16; This is an... (0) flac16/48kHz; Set I... (0) flac24/96 Recording... (0) flac16; Recording... (0) flac16/48kHz; Ted... (0)
Date User Comment