Browse Collections Artists Sources   Search Dates

Add Show    List Management    Help


Grateful Dead 04/09/83
Hampton Coliseum, Hampton, VA
Comments Add Comment    Source Collectors    Add to Collection    Add to Want List    History
Source # 137037 Other Sources
Entered by Matt Vernon
Checksums ffp , flac-md5
Disc Counts 0 / 0
Media Size Compressed: 921.59 MB (966361088 bytes)
Uncompressed: 1.21 GB (1304215402 bytes)
Date Circulated
Date Added
10/15/2016
10/15/2016
Source Summary flac24; Set Two AUD: Nakamichi CM300/CP4 shotguns > Sony TC-D5M > Maxell MX-90, FOB recording by Brian Schley. Transfer: MAC > Nakamichi CR-5A > Edirol FA-66 > Wavelab 2448 > CD-Wave (24bit output) > TLH > FLAC 2448 tagged. Transferred by Andrew F. 10/2016 
  Archive
Source Information - Download Text | Download Zip
GRATEFUL DEAD
Hampton Coliseum
Hampton VA
04-09-1983
Second Set

24bit/48kHz file-set

s2t01 Help on the Way > Slipknot >
s2t02 Franklin's Tower >
s2t03 Truckin' >
s2t04 Spoonful-Smokestack Jam >
s2t05 Drums >
s2t06 Space >
s2t07 Throwing Stones >
s2t08 Black Peter >
s2t09 Goin' Down the Road >
s2t10 One More Saturday Night
s2t11 Encore: Satisfaction

AUD: Nakamichi CM300/CP4 shotguns > Sony TC-D5M > Maxell MX-90,
FOB recording by Brian Schley.

Transfer: MAC > Nakamichi CR-5A > Edirol FA-66 > Wavelab 2448 >
CD-Wave (24bit output) > TLH > FLAC 2448 tagged. Transferred by
Andrew F. 10/2016

Note: Sadly, the 1st Set MAC is damaged beyond usability. ID-135191
patch Drums 1:50 > 4:44, & ID-14190 patch Satisfaction 0:00 > 0:10.
Thanks Jon Pasternak & Charlie McGuth for organizing this project!

    length     expanded size    cdr  WAVE problems  fmt   ratio  filename
     8:45.867     151449644 B   cxx   --   ---xx   flac  0.7505  gd1983-04-09s2t01.flac
     9:53.627     170964524 B   cxx   --   ---xx   flac  0.7651  gd1983-04-09s2t02.flac
     5:59.693     103591724 B   cxx   --   ---xx   flac  0.7682  gd1983-04-09s2t03.flac
     6:30.693     112519724 B   cxx   --   ---xx   flac  0.7411  gd1983-04-09s2t04.flac
     6:52.107     118686764 B   cxx   --   ---xx   flac  0.7142  gd1983-04-09s2t05.flac
     5:51.907     101349164 B   cxx   --   ---xx   flac  0.6669  gd1983-04-09s2t06.flac
     8:22.107     144606764 B   cxx   --   ---xx   flac  0.7442  gd1983-04-09s2t07.flac
     7:37.933     131884844 B   cxx   --   ---xx   flac  0.7229  gd1983-04-09s2t08.flac
     5:35.480      96618284 B   cxx   --   ---xx   flac  0.7699  gd1983-04-09s2t09.flac
     4:29.720      77679404 B   cxx   --   ---xx   flac  0.7522  gd1983-04-09s2t10.flac
     5:29.391      94864562 B   cxx   --   ---xx   flac  0.7459  gd1983-04-09s2t11.flac
    75:28.524    1304215402 B                            0.7409  (11 files)

No errors occured.



Show Checksums
ffp
gd1983-04-09s2t01.flac:9a464bfc5bc96e0923dca2547087913f
gd1983-04-09s2t02.flac:a764a69b40aed227dad1b0b9f2bc6b40
gd1983-04-09s2t03.flac:c9ad1284a007a0ab61e16b243f0ddf80
gd1983-04-09s2t04.flac:546d0b08d36da73b91dc18805d79eccb
gd1983-04-09s2t05.flac:9f8e8c39f0faa05382fb13f62c236676
gd1983-04-09s2t06.flac:a20925a8bef597af9f6e3493fddefcf6
gd1983-04-09s2t07.flac:5bba7b1466c0b95e9f94eb2daa71e59a
gd1983-04-09s2t08.flac:c9654abe08f9d99b7ab23a6451d8bba3
gd1983-04-09s2t09.flac:8f44d82230dc22cd94a146294e658adb
gd1983-04-09s2t10.flac:533bce48521014d2d66cf133e1184017
gd1983-04-09s2t11.flac:9a62d9724c330a034a8c84572cc47646
flac-md5
ab62e05d7dd14fa73770b0b17729eea8 *gd1983-04-09s2t01.flac
279691623027641285d81ea1f2944e31 *gd1983-04-09s2t02.flac
4d0a77148e9d2761e97ccad514e7caaf *gd1983-04-09s2t03.flac
0222cc716cbd43cacea3ae7ddb828402 *gd1983-04-09s2t04.flac
55c943a8b4c30212c7fa55713651b60b *gd1983-04-09s2t05.flac
60ee96d5e8a48ce75f0f2de967e6b8e9 *gd1983-04-09s2t06.flac
6fbb9376ac05469f33e5bc45959caa1b *gd1983-04-09s2t07.flac
f1ae1b092b70c97b70bcbb08dea2ac79 *gd1983-04-09s2t08.flac
8486c699acaf5ed0b4bd8eec53316dd0 *gd1983-04-09s2t09.flac
bc6b8f0aed92e01e6c1fadcf0d35127b *gd1983-04-09s2t10.flac
a699d88aa12445082d9fad4dc08aead1 *gd1983-04-09s2t11.flac

Comments
Add Comment
Other Sources (comments)
Senn 421 mics > Sony TC-D5... (3) Audience Recording:... (2) SBD> Master Cassette> Reel>... (7) flac16; Recording... (1) flac16; Matrix by... (0) flac16; Master... (0) flac24; Master... (0) flac16; Set Two AUD:... (0) flac16/44.1 Source... (0) flac24/48 Source... (0) flac16/44.1 Source... (0) flac24/48 Source... (0)
Date User Comment