Browse Collections Artists Sources   Search Dates

Add Show    List Management    Help


Grateful Dead 04/09/83
Hampton Coliseum, Hampton, VA
Comments Add Comment    Source Collectors    Add to Collection    Add to Want List    History
Source # 137038 Other Sources
Entered by Matt Vernon
Checksums ffp , flac-md5
Disc Counts 0 / 0
Media Size Compressed: 478.05 MB (501268480 bytes)
Uncompressed: 761.83 MB (798833764 bytes)
Date Circulated
Date Added
10/15/2016
10/15/2016
Source Summary flac16; Set Two AUD: Nakamichi CM300/CP4 shotguns > Sony TC-D5M > Maxell MX-90, FOB recording by Brian Schley. Transfer: MAC > Nakamichi CR-5A > Edirol FA-66 > Wavelab 2448 > CD-Wave (24bit output) > R8Brain > TLH > FLAC 1644 tagged. Transferred by Andrew F. 10/2016 
  Archive
Source Information - Download Text | Download Zip
GRATEFUL DEAD
Hampton Coliseum
Hampton VA
04-09-1983
Second Set

16bit/44.1kHz file-set

s2t01 Help on the Way > Slipknot >
s2t02 Franklin's Tower >
s2t03 Truckin' >
s2t04 Spoonful-Smokestack Jam >
s2t05 Drums >
s2t06 Space >
s2t07 Throwing Stones >
s2t08 Black Peter >
s2t09 Goin' Down the Road >
s2t10 One More Saturday Night
s2t11 Encore: Satisfaction

AUD: Nakamichi CM300/CP4 shotguns > Sony TC-D5M > Maxell MX-90,
FOB recording by Brian Schley.

Transfer: MAC > Nakamichi CR-5A > Edirol FA-66 > Wavelab 2448 >
CD-Wave (24bit output) > R8Brain > TLH > FLAC 1644 tagged.
Transferred by Andrew F. 10/2016

Note: Sadly, the 1st Set MAC is damaged beyond usability. ID-135191
patch Drums 1:50 > 4:44, & ID-14190 patch Satisfaction 0:00 > 0:10.
Thanks Jon Pasternak & Charlie McGuth for organizing this project!

    length     expanded size    cdr  WAVE problems  fmt   ratio  filename
     8:45.65       92762924 B   ---   --   ---xx   flac  0.6436  gd1983-04-09s2t01.flac
     9:53.47      104715788 B   ---   --   ---xx   flac  0.6670  gd1983-04-09s2t02.flac
     5:59.52       63449948 B   ---   --   ---xx   flac  0.6711  gd1983-04-09s2t03.flac
     6:30.52       68918348 B   ---   --   ---xx   flac  0.6271  gd1983-04-09s2t04.flac
     6:52.08       72695660 B   ---   --   ---xx   flac  0.5844  gd1983-04-09s2t05.flac
     5:51.68       62076380 B   ---   --   ---xx   flac  0.5073  gd1983-04-09s2t06.flac
     8:22.08       88571660 B   ---   --   ---xx   flac  0.6327  gd1983-04-09s2t07.flac
     7:37.70       80779484 B   ---   --   ---xx   flac  0.5975  gd1983-04-09s2t08.flac
     5:35.36       59178716 B   ---   --   ---xx   flac  0.6739  gd1983-04-09s2t09.flac
     4:29.54       47578652 B   ---   --   ---xx   flac  0.6455  gd1983-04-09s2t10.flac
     5:29.30       58106204 B   ---   --   ---xx   flac  0.6368  gd1983-04-09s2t11.flac
    75:28.40      798833764 B                            0.6274  (11 files)

No errors occured.



Show Checksums
ffp
gd1983-04-09s2t01.flac:5936cd79c63a157c29fa8578e0e12352
gd1983-04-09s2t02.flac:c5fe80b80b05c45ba4807330df8737e2
gd1983-04-09s2t03.flac:12357a2b00125f70617d0814ef3b4cdc
gd1983-04-09s2t04.flac:9f56dfa09f3f79b3400d0624d1f12723
gd1983-04-09s2t05.flac:95f77d3e0b0233a2d01320e93762613e
gd1983-04-09s2t06.flac:1622c08d74a046ae6cc524b50599fb67
gd1983-04-09s2t07.flac:32b243baaea78386b1c092acefe8b455
gd1983-04-09s2t08.flac:927c2efd2a1e05035336b1dfa8a0b535
gd1983-04-09s2t09.flac:3ccee74eeb10f28883fdc4504c500f6c
gd1983-04-09s2t10.flac:0b4b3bdfd191771455844f9f57b4545a
gd1983-04-09s2t11.flac:89e304378e1b2be1b37289ca122e7e70
flac-md5
0c76754f2dcbb3800029893260130f3b *gd1983-04-09s2t01.flac
c189d4e4f35e1a14a1dc4bde317679d0 *gd1983-04-09s2t02.flac
3780730575c212134f9c28263e3142e1 *gd1983-04-09s2t03.flac
35e2f14b3c44e81a9fdcd2dd4cf168c2 *gd1983-04-09s2t04.flac
cdee3e865728a13f50b4087f2d6d824d *gd1983-04-09s2t05.flac
dd7e41c6e2e922a6a414d301eb65372b *gd1983-04-09s2t06.flac
e50a762db4e63ad769de815af6bf367c *gd1983-04-09s2t07.flac
09b0dc081ee45e0eb6f3e2f3e6dec1a9 *gd1983-04-09s2t08.flac
b1cfade4b576cfca6c81ad4bc0dbc4f9 *gd1983-04-09s2t09.flac
f00cfdc5a8bf7335e996963af1494464 *gd1983-04-09s2t10.flac
7a64925b2cf73b9a6e8e0761237d6703 *gd1983-04-09s2t11.flac

Comments
Add Comment
Other Sources (comments)
Senn 421 mics > Sony TC-D5... (3) Audience Recording:... (2) SBD> Master Cassette> Reel>... (7) flac16; Recording... (1) flac16; Matrix by... (0) flac16; Master... (0) flac24; Master... (0) flac24; Set Two AUD:... (0) flac16/44.1 Source... (0) flac24/48 Source... (0) flac16/44.1 Source... (0) flac24/48 Source... (0)
Date User Comment