Browse Collections Artists Sources   Search Dates

Add Show    List Management    Help


Grateful Dead 05/10/87
Laguna Seca Recreation Area, Monterey, CA
Comments Add Comment    Source Collectors    Add to Collection    Add to Want List    History
Source # 137069 Other Sources
Entered by Matt Vernon
Checksums flac-md5 , ffp
Disc Counts 0 / 0
Media Size Compressed: 909 MB (953155584 bytes)
Uncompressed: 1.55 GB (1662810916 bytes)
Date Circulated
Date Added
10/17/2016
10/17/2016
Source Summary flac16; PCM Soundboard; Sony L-750ESX-HFB Dynamicron EXCELLENT SUPER HIFI VIDEO CASSETTE-> Sony SLO-1800 STEREO VIDEOCASSETTE RECORDER-> Sony PCM-601ESD DIGITAL AUDIO PROCESSOR-> SP/DIF-> Mytek Stereo 192 Sample Rate Converter-> Upsampled to 44.1kHz/24bit-> SP/DIF->RME FIREFACE 800-> FireWire 400-> Lenovo K450e Desktop PC-> WaveLab 6.11; Editing and Mastering by Jamie Waddell in Wavelab 7.1; Track, FLAC and Pack by John Wenzel; 16 bit 44.1kHz a project **GEMS** Betamania Release 2016-10-17 
  Archive
Source Information - Download Text | Download Zip
Grateful Dead
Sunday May 10, 1987
Laguna Seca Raceway
Monterey, California

PCM Soundboard

Sony L-750ESX-HFB Dynamicron EXCELLENT SUPER HIFI VIDEO CASSETTE->
Sony SLO-1800 STEREO VIDEOCASSETTE RECORDER->
Sony PCM-601ESD DIGITAL AUDIO PROCESSOR-> SP/DIF->
Mytek Stereo 192 Sample Rate Converter-> Upsampled to 44.1kHz/24bit->
SP/DIF->RME FIREFACE 800-> FireWire 400->
Lenovo K450e Desktop PC-> WaveLab 6.11

This recording was gratefully supplied by PO and Stucco TINA Holmes.

Editing and Mastering by Jamie Waddell in Wavelab 7.1
Track, FLAC and Pack by John Wenzel

16 bit 44.1kHz
a project **GEMS** Betamania Release 2016-10-17

Notes
- a few tracking blips patched with anonymous sbd > pcm master

--Set 1--
01 Tuning
02 Mississippi Half-Step Uptown Toodeloo >
03 Feel Like A Stranger
04 West L.A. Fadeaway
05 New Minglewood Blues
06 Row Jimmy
07 Box Of Rain >
08 Desolation Row >
09 Don't Ease Me In

--Set 2--
01 Tuning
02 Hell In A Bucket >
03 Scarlet Begonias >
04 Fire On The Mountain >
05 Man Smart (Woman Smarter) >
06 Drums >
07 Space >
08 China Doll >
09 Playing In The Band >
10 Throwing Stones >
11 Turn On Your Lovelight
--Encore--
12 Applause and Tuning
13 Not Fade Away >
14 Black Muddy River

originally shared at www.shnflac.net

    length     expanded size    cdr  WAVE problems  fmt   ratio  filename
     1:11.24       12580892 B   ---   --   ---xx   flac  0.4278  gd1987-05-10s1t01.flac
     7:11.04       76037852 B   ---   --   ---xx   flac  0.6041  gd1987-05-10s1t02.flac
     9:29.44      100475132 B   ---   --   ---xx   flac  0.6021  gd1987-05-10s1t03.flac
     8:57.48       94839740 B   ---   --   ---xx   flac  0.5845  gd1987-05-10s1t04.flac
     8:59.55       95209004 B   ---   --   ---xx   flac  0.6003  gd1987-05-10s1t05.flac
    10:31.62      111454268 B   ---   --   ---xx   flac  0.5498  gd1987-05-10s1t06.flac
     5:31.62       58534268 B   ---   --   ---xx   flac  0.5962  gd1987-05-10s1t07.flac
     9:03.10       95808764 B   ---   --   ---xx   flac  0.6223  gd1987-05-10s1t08.flac
     3:45.71       39857036 B   ---   --   ---xx   flac  0.6422  gd1987-05-10s1t09.flac
     1:14.13       13084220 B   ---   --   ---xx   flac  0.4374  gd1987-05-10s2t01.flac
     6:06.22       64614188 B   ---   --   ---xx   flac  0.6489  gd1987-05-10s2t02.flac
     9:38.47      102069788 B   ---   --   ---xx   flac  0.5935  gd1987-05-10s2t03.flac
     9:46.30      103441004 B   ---   --   ---xx   flac  0.5906  gd1987-05-10s2t04.flac
     7:33.35       79991564 B   ---   --   ---xx   flac  0.5925  gd1987-05-10s2t05.flac
     7:25.08       78516860 B   ---   --   ---xx   flac  0.5019  gd1987-05-10s2t06.flac
     7:40.34       81224012 B   ---   --   ---xx   flac  0.4373  gd1987-05-10s2t07.flac
     5:58.46       63259436 B   ---   --   ---xx   flac  0.5217  gd1987-05-10s2t08.flac
     3:46.18       39908780 B   ---   --   ---xx   flac  0.5906  gd1987-05-10s2t09.flac
     8:53.63       94169420 B   ---   --   ---xx   flac  0.6010  gd1987-05-10s2t10.flac
     5:42.23       60382940 B   ---   --   ---xx   flac  0.6127  gd1987-05-10s2t11.flac
     3:20.48       35392940 B   ---   --   ---xx   flac  0.4995  gd1987-05-10s2t12.flac
     7:13.56       76512956 B   ---   --   ---xx   flac  0.5512  gd1987-05-10s2t13.flac
     8:04.29       85445852 B   ---   --   ---xx   flac  0.5394  gd1987-05-10s2t14.flac
   157:06.27     1662810916 B                            0.5735  (23 files)



Show Checksums
flac-md5
2ebcc6ba0832a04022dc6011a5f05f7c *gd1987-05-10s1t01.flac
d7d154d56d0beb76b47a731d5f771169 *gd1987-05-10s1t02.flac
eff785f19e394992ec827a2a08e0ccda *gd1987-05-10s1t03.flac
ca60f8ffb770a9f23652d8b95b561dfa *gd1987-05-10s1t04.flac
6a9d2145e82e282a51fcf58fd4048bbe *gd1987-05-10s1t05.flac
775e5e8049ba89cdfccb1905848e44a0 *gd1987-05-10s1t06.flac
91b400e2c282d1306f5ed30763be2b0f *gd1987-05-10s1t07.flac
5fd34a2c2997a901d5c086fdc2a2889d *gd1987-05-10s1t08.flac
71e76167f56fb6fd8e3518367847ec6b *gd1987-05-10s1t09.flac
75918ed092c52485d242e5c52f98fd30 *gd1987-05-10s2t01.flac
9ac3ba01666e413a7976c6ae6128e99b *gd1987-05-10s2t02.flac
55b6ac4c902a7cd874b005a8527efeb9 *gd1987-05-10s2t03.flac
51b36ff1990c9d0969a0a887daa6cd90 *gd1987-05-10s2t04.flac
5392e909d2b0705081abebbf2468d402 *gd1987-05-10s2t05.flac
864b81fc074b2b1ea8fc27a3fcf148f9 *gd1987-05-10s2t06.flac
36b17fcf4826be437056cf3e6324e5d7 *gd1987-05-10s2t07.flac
259a8bac38960b9dabd6557dac486a99 *gd1987-05-10s2t08.flac
c5341163b1a40bbb6e3289e7cea1f753 *gd1987-05-10s2t09.flac
a47924bd363f06265e946abcd7736cab *gd1987-05-10s2t10.flac
35415fe8a33473e35699b0df7c474fa8 *gd1987-05-10s2t11.flac
bb9656179cde8c138006a047c52f3274 *gd1987-05-10s2t12.flac
83207808106b69caa246c6d75342628f *gd1987-05-10s2t13.flac
7cbb9893b7a2a6dee976a01fc50144d7 *gd1987-05-10s2t14.flac
ffp
gd1987-05-10s1t01.flac:e7d8a30a148ef58cfbed03cf8f59885e
gd1987-05-10s1t02.flac:910b0a9902acf00dc520742ece5baadc
gd1987-05-10s1t03.flac:b6233ffebfc38dfdad84b4ce3ba64223
gd1987-05-10s1t04.flac:2125057fbad6888ae4c07da6472a1878
gd1987-05-10s1t05.flac:d3daf51f4adbcea3a1cb3d72c9848e8c
gd1987-05-10s1t06.flac:a29d06bdd645013aaba34ec092966ad5
gd1987-05-10s1t07.flac:74157140fcfa6997a832c280d147e536
gd1987-05-10s1t08.flac:60f6f72c1feb1f2c7e6e970939cb65ab
gd1987-05-10s1t09.flac:26b12741ccc8b40363897304dc3ab2ae
gd1987-05-10s2t01.flac:c4bbfe77ce1c94fe7386aaba54fb244b
gd1987-05-10s2t02.flac:1ba2c9d4214b86e21dce0cfdc7bcda1b
gd1987-05-10s2t03.flac:ee4ae6d053aa55cd543488c4dd708874
gd1987-05-10s2t04.flac:bf8e526a3a1c6d43160f99f1db8348e1
gd1987-05-10s2t05.flac:cb0632368ec0a11866ef5f44eced483e
gd1987-05-10s2t06.flac:2ff469b8a1bf1bc451d07be61fe4df68
gd1987-05-10s2t07.flac:97f2101e901d20bcf131eebee87440a3
gd1987-05-10s2t08.flac:03244e8f555fb60c3fc2c493fb656b33
gd1987-05-10s2t09.flac:a76043d16f1b731d1e575181a0c56e29
gd1987-05-10s2t10.flac:d39d1608a52572f1c44353e26358dd7f
gd1987-05-10s2t11.flac:ff2d563a2d9981ce5b19afdda2a57248
gd1987-05-10s2t12.flac:048b80fc055275e0012d62a0adffc1c7
gd1987-05-10s2t13.flac:b07480d2ed53155eeab64d39ebb39609
gd1987-05-10s2t14.flac:4431cc4684f2d5cbfaf73a10de264368

Comments
Add Comment
Other Sources (comments)
DSBD> PCM> DAT> zefiro2>... (15) flac16; Recording... (0) flac16; Hat-Mounted... (0) flac24; Recording... (0) flac16; Recording... (0) flac16; Recording... (0)
Date User Comment