Browse Collections Artists Sources   Search Dates

Add Show    List Management    Help


Grateful Dead 02/10/89
Great Western LA Forum, Inglewood, CA
Comments Add Comment    Source Collectors    Add to Collection    Add to Want List    History
Source # 137076 Other Sources
Entered by Matt Vernon
Checksums flac-md5 , ffp
Disc Counts 0 / 0
Media Size Compressed: 895 MB (938475520 bytes)
Uncompressed: 1.58 GB (1696188016 bytes)
Date Circulated
Date Added
10/18/2016
10/18/2016
Source Summary flac16; Recording Info: SBD -> Cassette Master (TDK SA-X100); Transfer Info: Cassette Master (Nakamichi CR-7A) -> Tascam DA-3000 (DSF 1-bit/5.8 MHz) -> KORG AudioGate 4 -> Samplitude Professional v11.2.1 -> FLAC (24bit/96k); FLAC 16 Additional Lineage: 24/96 flac -> 16/44.1 WAV with dbpoweramp. flac level 8, SBE fix and checksums with traderslittlehelper; All Transfers and Mastering By Charlie Miller 
  Archive
Source Information - Download Text | Download Zip
Grateful Dead - February 10, 1989
Great Western Forum - Inglewood, CA

Recording Info:
SBD -> Cassette Master (TDK SA-X100)

Transfer Info:
Cassette Master (Nakamichi CR-7A) -> Tascam DA-3000 (DSF 1-bit/5.8 MHz) ->
KORG AudioGate 4 -> Samplitude Professional v11.2.1 -> FLAC (24bit/96k)
(1 Disc FLAC)

FLAC 16 Additional Lineage:
24/96 flac -> 16/44.1 WAV with dbpoweramp.
flac level 8, SBE fix and checksums with traderslittlehelper.

All Transfers and Mastering By Charlie Miller
[email protected]
October 7, 2016

Set 1:
01 - Tuning
02 - Feel Like A Stranger ->
03 - Franklin's Tower ->
04 - Walkin' Blues
05 - To Lay Me Down
06 - When I Paint My Masterpiece
07 - Friend Of The Devil
08 - Let It Grow

Set 2:
09 - Tuning
10 - Just A Little Light
11 - Truckin' ->
12 - Crazy Fingers ->
13 - Playing In The Band ->
14 - Drums ->
15 - Space ->
16 - The Wheel ->
17 - Gimme Some Lovin' ->
18 - Wharf Rat ->
19 - Sugar Magnolia

Encore:
20 - It's All Over Now, Baby Blue


SHNTOOL OUTPUT:
   length     expanded size    cdr  WAVE problems  fmt   ratio  filename
    2:18.53       24467900 B   ---   --   ---xx   flac  0.4629  01 Tuning.flac
    7:32.43       79833980 B   ---   --   ---xx   flac  0.5797  02 Feel Like A Stranger.flac
    9:32.70      101065484 B   ---   --   ---xx   flac  0.5888  03 Franklin's Tower.flac
    7:18.67       77420828 B   ---   --   ---xx   flac  0.5637  04 Walkin' Blues.flac
    9:55.01      104960396 B   ---   --   ---xx   flac  0.5292  05 To Lay Me Down.flac
    5:51.66       62071676 B   ---   --   ---xx   flac  0.5759  06 When I Paint My
Masterpiece.flac
    8:14.58       87278060 B   ---   --   ---xx   flac  0.5672  07 Friend Of The Devil.flac
   12:06.29      128134652 B   ---   --   ---xx   flac  0.5717  08 Let It Grow.flac
    2:54.67       30851228 B   ---   --   ---xx   flac  0.4554  09 Tuning.flac
    8:31.38       90229820 B   ---   --   ---xx   flac  0.5415  10 Just A Little Light.flac
    7:58.31       84392156 B   ---   --   ---xx   flac  0.6107  11 Truckin'.flac
    8:22.38       88642220 B   ---   --   ---xx   flac  0.5598  12 Crazy Fingers.flac
   14:44.46      156045836 B   ---   --   ---xx   flac  0.5597  13 Playing In The Band.flac
    6:46.66       71773676 B   ---   --   ---xx   flac  0.4778  14 Drums.flac
    8:09.22       86311388 B   ---   --   ---xx   flac  0.4618  15 Space.flac
    5:30.44       58315532 B   ---   --   ---xx   flac  0.5528  16 The Wheel.flac
    4:53.16       51722876 B   ---   --   ---xx   flac  0.5895  17 Gimme Some Lovin'.flac
   10:24.47      110184188 B   ---   --   ---xx   flac  0.5679  18 Wharf Rat.flac
   10:33.57      111795308 B   ---   --   ---xx   flac  0.5699  19 Sugar Magnolia.flac
    8:34.09       90690812 B   ---   --   ---xx   flac  0.5519  20 It's All Over Now, Baby
Blue.flac
  160:15.43     1696188016 B                            0.5539  (20 files)


Show Checksums
flac-md5
30e88c8826c47ebf5042862f859a7f40 *01 Tuning.flac
84c384ca3f5a5cc98319be450b9d1fa8 *02 Feel Like A Stranger.flac
9c4f5b3c54fd1cecb196a2c88d62dbc1 *03 Franklin's Tower.flac
4034a3f4a2380cf51f90a0edfe67e8ef *04 Walkin' Blues.flac
8f44c0b1cf3fbe1323a6eb61efed81ec *05 To Lay Me Down.flac
10040990a68ce8b54309a88d1b681d6b *06 When I Paint My Masterpiece.flac
915d377587c6df0bb07b424187dd3689 *07 Friend Of The Devil.flac
3e4df4048414921fcededf888c42a09a *08 Let It Grow.flac
1481fbae2a33add38751d77fd2c8d6a3 *09 Tuning.flac
1800592cdc7af1d6861418c0296a2c17 *10 Just A Little Light.flac
75bdd99b8717bfe7fb92e9a2b80e4e64 *11 Truckin'.flac
56c0495e6668049a2b3f6c1b7d301b7e *12 Crazy Fingers.flac
1b20aad0f1dd64ccf109d2c772fcfd1d *13 Playing In The Band.flac
8053d817a1ca3d0e5d9e5b8a06c7bb73 *14 Drums.flac
3fd0a01b6e626b6c328ba1cd3018b126 *15 Space.flac
8d00878b1b63828d64efb90e297cca46 *16 The Wheel.flac
66a589502f214b71c5767a8587e221c0 *17 Gimme Some Lovin'.flac
b03fa9ebd77001a5fdf65a6d86cbc379 *18 Wharf Rat.flac
dc6275e8fc3f28742533a54603e124d1 *19 Sugar Magnolia.flac
b50bebe95d35553b419818791bcf4eba *20 It's All Over Now, Baby Blue.flac
ffp
01 Tuning.flac:1594d9ccc2fca3b4eac6b9d4c643eba7
02 Feel Like A Stranger.flac:b2211e393685fd02d0739067cc036ca1
03 Franklin's Tower.flac:271811176ab2a78c53096dc3cf1953ad
04 Walkin' Blues.flac:34f0e1e76714f52f2b112d84fb2a7f4c
05 To Lay Me Down.flac:0c0b9fda9dfec06dd9150b7f9c2b3d43
06 When I Paint My Masterpiece.flac:24f54a898015c7fc6696b18737207ae4
07 Friend Of The Devil.flac:d60ff80acc2bb8f16e891d7de5517dcb
08 Let It Grow.flac:6dab4ce35f97f71fc2bd349ee2dbf900
09 Tuning.flac:31018e5920ff301e0745e819ad29fc1e
10 Just A Little Light.flac:9775b74ff953bba89fa9f408f07b4d66
11 Truckin'.flac:b20fceeb4e926a26a8f8937e0369346b
12 Crazy Fingers.flac:b216eec3fb07672e1605ad3b2366a77b
13 Playing In The Band.flac:63d5534f6023379942c95c0aa0fabd96
14 Drums.flac:ddaa1ff9b4259745bfff75636c8ffe4f
15 Space.flac:bc3f40a836829cc1cfa392b8a7c85020
16 The Wheel.flac:4dd394dd94bbb7b96aebf705f38870a9
17 Gimme Some Lovin'.flac:5df1520058e8c178bd22d11c58566e7c
18 Wharf Rat.flac:5056b3cd9643603c6c30d1974ae8926f
19 Sugar Magnolia.flac:d14fefe2d58cff0c4d79245dc9679bc1
20 It's All Over Now, Baby Blue.flac:6ef376a841b8b06ad15d556f7b5a499d

Comments
Add Comment
Other Sources (comments)
Source: Master Cassette... (0) flac16; Seamless fix... (1) flac24/96; Senn... (1) flac16; Senn MKE2002... (0) flac24/48; Senn... (0) flac16; AT835B's- AT... (0) flac24; Recording... (0) flac16; Source Info:... (0) flac16; Recording... (0)
Date User Comment
10/19/2016 Wharfrat73 Updated info file.