Browse Collections Artists Sources   Search Dates

Add Show    List Management    Help


Grateful Dead 02/12/89
Great Western LA Forum, Inglewood, CA
Comments Add Comment    Source Collectors    Add to Collection    Add to Want List    History
Source # 137086 Other Sources
Entered by Matt Vernon
Checksums flac-md5 , ffp
Disc Counts 0 / 0
Media Size Compressed: 860 MB (901775360 bytes)
Uncompressed: 1.54 GB (1649477428 bytes)
Date Circulated
Date Added
10/19/2016
10/19/2016
Source Summary flac16; Recording Info: SBD -> Cassette Master (TDK SA-X100); Transfer Info: Cassette Master (Nakamichi CR-7A) -> Tascam DA-3000 (DSF 1-bit/5.8 MHz) -> KORG AudioGate 4 -> Samplitude Professional v11.2.1 -> FLAC (24bit/96k); FLAC 16 Additional Lineage: 24/96 flac -> 16/44.1 WAV with dbpoweramp. flac level 8, SBE fix and checksums with traderslittlehelper; All Transfers and Mastering By Charlie Miller 
  Archive
Source Information - Download Text | Download Zip
Grateful Dead - February 12, 1989
Great Western Forum - Inglewood, CA

Recording Info:
SBD -> Cassette Master (TDK SA-X100)

Transfer Info:
Cassette Master (Nakamichi CR-7A) -> Tascam DA-3000 (DSF 1-bit/5.8 MHz) ->
KORG AudioGate 4 -> Samplitude Professional v11.2.1 -> FLAC (24bit/96k)
(1 Disc FLAC)

FLAC 16 Additional Lineage:
24/96 flac -> 16/44.1 WAV with dbpoweramp.
flac level 8, SBE fix and checksums with traderslittlehelper.

All Transfers and Mastering By Charlie Miller
[email protected]
October 7, 2016

Notes:
-- How Long Blues and Gimme Some Lovin' with Spencer Davis
-- Iko thru Memphis Blues and NFA -> Heaven's Door with Bob Dylan
-- The Other One with Kodo drummer

Set 1:
01 - Tuning
02 - Cold Rain And Snow
03 - Hell In A Bucket
04 - Row Jimmy
05 - Beat It On Down The Line ->
06 - Promised Land
07 - West L.A. Fadeaway
08 - How Long Blues
09 - Gimme Some Lovin'

Set 2:
10 - Tuning
11 - Iko Iko
12 - Monkey And The Engineer
13 - Alabama Getaway
14 - Dire Wolf
15 - Cassidy
16 - Stuck Inside Of Mobile With The Memphis Blues Again ->
17 - Drums ->
18 - Space ->
19 - The Other One ->
20 - Stella Blue ->
21 - Foolish Heart

Encore:
22 - Not Fade Away ->
23 - Knockin' On Heaven's Door


SHNTOOL OUTPUT:
    length     expanded size    cdr  WAVE problems  fmt   ratio  filename
     1:06.73       11814140 B   ---   --   ---xx   flac  0.4581  01 Tuning.flac
     5:43.15       60540524 B   ---   --   ---xx   flac  0.5730  02 Cold Rain And Snow.flac
     9:10.29       97088252 B   ---   --   ---xx   flac  0.5667  03 Hell In A Bucket.flac
    12:02.55      127490204 B   ---   --   ---xx   flac  0.5394  04 Row Jimmy.flac
     3:13.20       34092284 B   ---   --   ---xx   flac  0.5908  05 Beat It On Down The Line.flac
     4:50.28       51221900 B   ---   --   ---xx   flac  0.5735  06 Promised Land.flac
     9:10.36       97104716 B   ---   --   ---xx   flac  0.5412  07 West LA Fadeaway.flac
     4:43.41       50017676 B   ---   --   ---xx   flac  0.5835  08 How Long Blues.flac
     8:19.61       88167116 B   ---   --   ---xx   flac  0.5628  09 Gimme Some Lovin'.flac
     2:59.58       31712060 B   ---   --   ---xx   flac  0.4696  10 Tuning.flac
     7:35.52       80384348 B   ---   --   ---xx   flac  0.6026  11 Iko Iko.flac
     3:33.10       37596764 B   ---   --   ---xx   flac  0.5812  12 Monkey And The Engineer.flac
     5:08.20       54378284 B   ---   --   ---xx   flac  0.5817  13 Alabama Getaway.flac
     4:19.05       45699404 B   ---   --   ---xx   flac  0.5715  14 Dire Wolf.flac
     7:25.45       78603884 B   ---   --   ---xx   flac  0.5754  15 Cassidy.flac
     8:25.37       89169068 B   ---   --   ---xx   flac  0.6163  16 Stuck Inside Of Mobile With The Memphis Blues Again.flac
    11:14.37      118980668 B   ---   --   ---xx   flac  0.5044  17 Drums.flac
     8:32.03       90323900 B   ---   --   ---xx   flac  0.4418  18 Space.flac
     5:49.26       61624796 B   ---   --   ---xx   flac  0.5361  19 The Other One.flac
     7:56.62       84112268 B   ---   --   ---xx   flac  0.4909  20 Stella Blue.flac
     8:11.08       86631260 B   ---   --   ---xx   flac  0.5411  21 Foolish Heart.flac
     9:06.58       96450860 B   ---   --   ---xx   flac  0.5400  22 Not Fade Away.flac
     7:12.29       76273052 B   ---   --   ---xx   flac  0.5395  23 Knockin' On Heaven's Door.flac
   155:50.58     1649477428 B                            0.5470  (23 files)



Show Checksums
flac-md5
30fe629c3365b35f42cdb20cbd9ca0f4 *01 Tuning.flac
f11a89b01663d6e0c1916551351f5454 *02 Cold Rain And Snow.flac
723e26d727253e52601a0f8cefb0ba6e *03 Hell In A Bucket.flac
70701df891df8e132a1058fa9b6b579c *04 Row Jimmy.flac
ef60c4be87e4ee70b16b2130d78f2d43 *05 Beat It On Down The Line.flac
eef8cc04bad55c84199907604bdf29ba *06 Promised Land.flac
81bac210dc5e2a341491e7359507d59a *07 West LA Fadeaway.flac
06ccdb1e338394ddfdac88375b189a8e *08 How Long Blues.flac
aa105bc774f0093086f5b7a91a10be02 *09 Gimme Some Lovin'.flac
831915920c1cbaeb6cae1104d11f33c8 *10 Tuning.flac
8bd89ef7a350aabbfecfd2123c030d92 *11 Iko Iko.flac
7a3160d69f68903fa42bc056c2c39e44 *12 Monkey And The Engineer.flac
6511cb9d1cd20baa975aa56045b64796 *13 Alabama Getaway.flac
99f6e27572c33dfa8dd1d601837d3825 *14 Dire Wolf.flac
6aaecaa091bfb06f9aa96b86c453642b *15 Cassidy.flac
3fe3d2c2ed072bd55bae2f8e0d448033 *16 Stuck Inside Of Mobile With The Memphis Blues Again.flac
4f874826aaddd8c8ae5a333ac2999d02 *17 Drums.flac
a48de1bbea01d29eb814788ebaaf1ddc *18 Space.flac
0a674e96c8b68ccd30364edd61f25b19 *19 The Other One.flac
13e7af5ddcbb3d4c1fe58ff2b78f0802 *20 Stella Blue.flac
5fc5b8cc11b9c767c31764808c67a385 *21 Foolish Heart.flac
591cdb5e6980ff242c4bc72b91da50ff *22 Not Fade Away.flac
0514488260331b0ca9555301bddb96fa *23 Knockin' On Heaven's Door.flac
ffp
01 Tuning.flac:cad31987b5460aebaea7c32881f08322
02 Cold Rain And Snow.flac:02038f68fcbf625ad0f281d27529b0a9
03 Hell In A Bucket.flac:77e08d647ce944f8333ab9fd6addec47
04 Row Jimmy.flac:92e963efcc057b1e08847dd8df4af49c
05 Beat It On Down The Line.flac:129a7a8da392dcbe53bdb6e9582fbb35
06 Promised Land.flac:da50201be8a673d575721ffc48015ceb
07 West LA Fadeaway.flac:bddf414a4dc6c20f4add61474ca2b6ae
08 How Long Blues.flac:0c2ecbfab5c5608d39e9785fd5df9206
09 Gimme Some Lovin'.flac:63c01b31e27cbbde0e1e20577a49f45b
10 Tuning.flac:fe5d53b0567be1e79265b1563b8f96f5
11 Iko Iko.flac:b2c2d549f2138e5d9d7e9a9fd9c76d9a
12 Monkey And The Engineer.flac:c55d95557956fe6570df9b3f1afe2fea
13 Alabama Getaway.flac:1e0c4969b079f3197cebc292268c2bea
14 Dire Wolf.flac:10497cd23dfd04dd32053ef78b4e0ceb
15 Cassidy.flac:f11f32ebd3a0a5b745b63b3b71a9b5fa
16 Stuck Inside Of Mobile With The Memphis Blues Again.flac:5fecb7fc53a21fb0ad81e23a0c158fba
17 Drums.flac:2e1246874aee318770aa32cee0e55fa5
18 Space.flac:72445e85f38d6cb06b72463c4f466376
19 The Other One.flac:6cf4ff4c9b24787c799b2c34267967fd
20 Stella Blue.flac:69683689c857f7d8d90c656568b92a47
21 Foolish Heart.flac:5380ee9d9114c3aea78d8e38bcef3d35
22 Not Fade Away.flac:143c8a8464d52b7517c61a17e0040d94
23 Knockin' On Heaven's Door.flac:1973d4680ccb4302486c9309335af3c8

Comments
Add Comment
Other Sources (comments)
SBD; via Mike Lai (2) SBD> MC> DAT> CD> SHN (5) flac24; Sean Weber... (0) flac16; Sean Weber... (1) flac16; Recording... (0) flac16; AT835B's- AT... (0) flac24; Recording... (0) flac16; Set 1 Source... (0) flac16; Matrix 2... (0) DTS-Audio-CD 5.1... (0) flac16/48kHz; 5.1... (0) flac16; Recording... (0)
Date User Comment