Browse Collections Artists Sources   Search Dates

Add Show    List Management    Help


Grateful Dead 10/19/94
Madison Square Garden, New York, NY
Comments Add Comment    Source Collectors    Add to Collection    Add to Want List    History
Source # 137089 Other Sources
Entered by Matt Vernon
Checksums ffp , flac-md5
Disc Counts 0 / 0
Media Size Compressed: 1.05 GB (1126939956 bytes)
Uncompressed: 1.69 GB (1816595132 bytes)
Date Circulated
Date Added
10/20/2016
10/20/2016
Source Summary flac16/48kHz; Recording Info: SBD -> Dat -> Cassette Master -> Dat (48k); Transfer Info: Dat (Tascam DA-20) -> Tascam DA-3000 -> Samplitude Professional v11.2.1 -> FLAC/48k; All Transfers and Mastering By Charlie Miller 
  Archive
Source Information - Download Text | Download Zip
Grateful Dead - October 19, 1994
Madison Square Garden - New York, NY

Recording Info:
SBD -> Dat -> Cassette Master -> Dat (48k)

Transfer Info:
Dat (Tascam DA-20) -> Tascam DA-3000 -> Samplitude Professional v11.2.1 -> FLAC/48k
(1 DVD FLAC)

All Transfers and Mastering By Charlie Miller
[email protected]
October 19, 2016

Notes:
-- Thanks to Rob Eaton for the Dats

Set 1:
01 - Feel Like A Stranger ->
02 - Bertha
03 - The Same Thing
04 - Jack-A-Roe
05 - El Paso
06 - If The Shoe Fits
07 - Bird Song

Set 2:
08 - Samson And Delilah
09 - So Many Roads
10 - Saint Of Circumstance ->
11 - Terrapin Station ->
12 - Drums ->
13 - Space ->
14 - Way To Go Home ->
15 - Stella Blue ->
16 - Sugar Magnolia

Encore:
17 - Brokedown Palace


SHNTOOL OUTPUT:
    length     expanded size    cdr  WAVE problems  fmt   ratio  filename
    10:46.610     124149116 B   cxx   --   ---xx   flac  0.6520  01 Feel Like A Stranger.flac
     9:22.173     107937192 B   cxx   --   ---xx   flac  0.6465  02 Bertha.flac
     5:30.441      63444656 B   cxx   --   ---xx   flac  0.6138  03 The Same Thing.flac
     6:09.750      70992120 B   cxx   --   ---xx   flac  0.6068  04 Jack-A-Roe.flac
     7:21.819      84829272 B   cxx   --   ---xx   flac  0.6169  05 El Paso.flac
     6:23.679      73666352 B   cxx   --   ---xx   flac  0.6465  06 If The Shoe Fits.flac
    15:16.898     176044408 B   cxx   --   ---xx   flac  0.6318  07 Bird Song.flac
     8:39.042      99656160 B   cxx   --   ---xx   flac  0.6300  08 Samson And Delilah.flac
     8:09.133      93913664 B   cxx   --   ---xx   flac  0.6315  09 So Many Roads.flac
     7:07.315      82044456 B   cxx   --   ---xx   flac  0.6464  10 Saint Of Circumastance.flac
    23:06.271     266164068 B   cxx   --   ---xx   flac  0.6151  11 Terrapin Station.flac
     3:14.314      37308260 B   cxx   --   ---xx   flac  0.5074  12 Drums.flac
    16:05.081     185295672 B   cxx   --   ---xx   flac  0.5678  13 Space.flac
     6:46.455      78039452 B   cxx   --   ---xx   flac  0.6415  14 Way To Go Home.flac
     9:44.721     112266520 B   cxx   --   ---xx   flac  0.6131  15 Stella Blue.flac
     8:48.255     101425068 B   cxx   --   ---xx   flac  0.6534  16 Sugar Magnolia.flac
     5:09.472      59418696 B   cxx   --   ---xx   flac  0.5868  17 Brokedown Palace.flac
   157:41.429    1816595132 B                            0.6204  (17 files)


Show Checksums
ffp
01 Feel Like A Stranger.flac:e35830fcee2453658768957b20f6b642
02 Bertha.flac:6a1485dd8537447e371e8c7421fd5d12
03 The Same Thing.flac:f1991d0dec1d6cb47a6943d553f3f0da
04 Jack-A-Roe.flac:2bf3ed2a6c22e4867c2bbdaca3dde05a
05 El Paso.flac:955da92a5424dca5e801f3c811417d45
06 If The Shoe Fits.flac:5780cf857f92d0fb40b53a78df9994c7
07 Bird Song.flac:ad470af5a298be7d1dc3ec2f56b9c98a
08 Samson And Delilah.flac:431df0c15d9c0866d88fccdd9c9510d9
09 So Many Roads.flac:4e6cbf65169074206d87824ad91e1bb6
10 Saint Of Circumastance.flac:46380c0efc31ddbf9080f9bbbe0bd315
11 Terrapin Station.flac:351e0d11b99ab14f52d219e0801ef049
12 Drums.flac:17ce68eafd54e8e8570b7dc0d967979c
13 Space.flac:3f2df1b8c9c4e7c1362f907d2f9d8224
14 Way To Go Home.flac:6acf6afcaac6c4260ca120d31ad7f143
15 Stella Blue.flac:4d377cebcefba0737490562182d1fda1
16 Sugar Magnolia.flac:0c9070d27d33896fb645eaebc6114bf1
17 Brokedown Palace.flac:9a908f8c1af6a10ae92aa818281493ca
flac-md5
1a718cddd12902a0af9df352f64f3d3f *01 Feel Like A Stranger.flac
bdcaaec019e5b20cdf389c656e019e3f *02 Bertha.flac
ad1593ff81101d4ed7d1130e7488ce72 *03 The Same Thing.flac
df1c1bee3e85405a3d13152a7edbfdac *04 Jack-A-Roe.flac
1176de10d0105fd1c807107afa19cb99 *05 El Paso.flac
efe1398cec67670fa1c2951b3ab209d5 *06 If The Shoe Fits.flac
64ed296a97b4c915c4fdb6ce6a4e3a1a *07 Bird Song.flac
98001b1d8b069961be3fbf87f13edabd *08 Samson And Delilah.flac
aa5af6a1db8cc23d4ed4c5e87d9caa5a *09 So Many Roads.flac
f548a2ac5c2e7083a4c1262e967138f8 *10 Saint Of Circumastance.flac
d1a31511c30b859bcf188e0a2d68e664 *11 Terrapin Station.flac
4bedee213bfb42d130348a54f5947b48 *12 Drums.flac
002bfef495fda7137ab04aa4d92a11d2 *13 Space.flac
fc6e5a77e086e8935d14e56911bcb843 *14 Way To Go Home.flac
0d21d688a7a244e68be20a0f1bb10114 *15 Stella Blue.flac
01cfa82db4269a6cea1e3cc4c09b05d8 *16 Sugar Magnolia.flac
e3763375d88c714d8fe87b28f7692b2a *17 Brokedown Palace.flac

Comments
Add Comment
Other Sources (comments)
B&K 4011?s; AUD> DAT> CDR;... (2) flac16; AKG... (0) flac16; Tapers... (0) flac16; Recording... (0)
Date User Comment
05/08/2017 ktvids Song 03 should be Spoonful