Browse Collections Artists Sources   Search Dates

Add Show    List Management    Help


Grateful Dead 09/23/87
The Spectrum, Philadelphia, PA
Comments Add Comment    Source Collectors    Add to Collection    Add to Want List    History
Source # 137225 Other Sources
Entered by Matt Vernon
Checksums flac-md5 , ffp
Disc Counts 0 / 0
Media Size Compressed: 917 MB (961544192 bytes)
Uncompressed: 1.41 GB (1516387156 bytes)
Date Circulated
Date Added
11/11/2016
11/11/2016
Source Summary flac16; (original shnid = 90559) taper: Joe D'Amico nak 300 mics w/cp4 shotguns > sony d-5 nak dragon tape deck > sony sbm1 > creative extigy soundcard > cool edit pro > flac frontend - pitch correction and patches by Kevin Tobin 
  Archive
Source Information - Download Text | Download Zip
Grateful Dead
The Spectrum
Philadelphia, PA
September 23, 1987

Patched and pitch corrected audience

Set 1:
d1t01 - Tuning
d1t02 - Feel Like A Stranger >
d1t03 - Franklin's Tower
d1t04 - Walkin' Blues
d1t05 - Friend Of The Devil
d1t06 - Tons Of Steel >
d1t07 - Desolation Row
d1t08 - Big Railroad Blues >
d1t09 - The Music Never Stopped

Set 2:
d2t01 - Bertha >
d2t02 - Cumberland Blues
d2t03 - Playing In The Band >
d2t04 - Uncle John's Band >
d2t05 - Playing In The Band Jam >
d2t06 - Drums >
d2t07 - Space >
d2t08 - I Need A Miracle   >
d2t09 - Dear Mr. Fantasy >
d2t10 - Around And Around >
d2t11 - Good Lovin' >
d2t12 - La Bamba >
d2t13 - Good Lovin'

Encore:
d2t14 - U.S. Blues

Jerry Garcia - Guitar
Bob Weir - Guitar
Brent Mydland - Keyboards
Phil Lesh - Bass
Bill Kreutzmann - Drums
Mickey Hart - Drums

Audio Information:
Original  SBD (shnid = 90559)

taper : Joe D'Amico ''aka'' Joebeacon

nak 300 mics w/cp4 shotguns > sony d-5

nak dragon tape deck > sony sbm1 > creative extigy soundcard > cool edit pro > flac frontend

AUD was patched with:
AUD (shnid = 133606)

Source / Lineage : Taper section  nakamichi CM 100 / CP-4s > Marantz PMD 420,  Master Cassette > CD,
Transfered on a Nakamichi DR-2 > Tascom CDRW 2000 > me >EAC > TLH level  8 > flac 16 > you > enjoy

Tape and Transfer By Jon Pasternak
---------------------------------------------------------
- Mixed by [email protected]
- FLAC conversion 11-NOV-2016 - Trader Little Helper
- Tagged 11-NOV-2016 - Tag&Rename
---------------------------------------------------------
Only minor patching needed except 38 seconds during drums.
Speedwise the audience was fast when compared to other recordings - 1.000 seconds per minute.

Brokedown House Production

    length     expanded size    cdr  WAVE problems  fmt   ratio  filename
     0:25.60        4551164 B   ---   --   -----    wav  1.0000  gd1987-09-23d1t01.wav
     7:16.66       77065676 B   ---   --   -----    wav  1.0000  gd1987-09-23d1t02.wav
     9:56.70      105299084 B   ---   --   -----    wav  1.0000  gd1987-09-23d1t03.wav
     6:47.72       71964188 B   ---   --   -----    wav  1.0000  gd1987-09-23d1t04.wav
     9:24.34       99569612 B   ---   --   -----    wav  1.0000  gd1987-09-23d1t05.wav
     5:08.25       54390044 B   ---   --   -----    wav  1.0000  gd1987-09-23d1t06.wav
    11:02.06      116790956 B   ---   --   -----    wav  1.0000  gd1987-09-23d1t07.wav
     5:16.52       55864748 B   ---   --   -----    wav  1.0000  gd1987-09-23d1t08.wav
     8:11.65       86765324 B   ---   --   -----    wav  1.0000  gd1987-09-23d1t09.wav
     7:02.65       74593724 B   ---   --   -----    wav  1.0000  gd1987-09-23d2t01.wav
     5:27.66       57838076 B   ---   --   -----    wav  1.0000  gd1987-09-23d2t02.wav
     7:19.35       77521964 B   ---   --   -----    wav  1.0000  gd1987-09-23d2t03.wav
     7:29.43       79304780 B   ---   --   -----    wav  1.0000  gd1987-09-23d2t04.wav
     2:08.09       22600412 B   ---   --   -----    wav  1.0000  gd1987-09-23d2t05.wav
    10:23.02      109901948 B   ---   --   -----    wav  1.0000  gd1987-09-23d2t06.wav
     8:53.61       94164716 B   ---   --   -----    wav  1.0000  gd1987-09-23d2t07.wav
     4:12.00       44452844 B   ---   --   -----    wav  1.0000  gd1987-09-23d2t08.wav
     6:09.53       65216300 B   ---   --   -----    wav  1.0000  gd1987-09-23d2t09.wav
     3:56.45       41736284 B   ---   --   -----    wav  1.0000  gd1987-09-23d2t10.wav
     5:04.10       53649164 B   ---   --   -----    wav  1.0000  gd1987-09-23d2t11.wav
     2:03.42       21796028 B   ---   --   -----    wav  1.0000  gd1987-09-23d2t12.wav
     4:05.62       43363868 B   ---   --   -----    wav  1.0000  gd1987-09-23d2t13.wav
     5:28.54       57986252 B   ---   --   -----    wav  1.0000  gd1987-09-23d2t14.wav
   143:16.22     1516387156 B                            1.0000  (23 files)



Show Checksums
flac-md5
06362611dfee718483ed97eefaed79c8 *gd1987-09-23d1t01.flac
7b1295268f13a0e7bd31119384a9e9fd *gd1987-09-23d1t02.flac
1988be93f2587d004df605ac94eebdb3 *gd1987-09-23d1t03.flac
48cedc858e4f1b543593e64532fd1213 *gd1987-09-23d1t04.flac
d93ed9b7db7a0687f12e220120ff1782 *gd1987-09-23d1t05.flac
ca69c69c62986153c311af752e31d6b6 *gd1987-09-23d1t06.flac
1b0f33f20788b29fcc54eae377ad1321 *gd1987-09-23d1t07.flac
d3d68da0f1c8502e3c29a9335a4adc25 *gd1987-09-23d1t08.flac
f90a22bb870f993496601bcaecb75cfc *gd1987-09-23d1t09.flac
5dca63c00392ddefde3115e86b43828c *gd1987-09-23d2t01.flac
9590662668a461f4b476e3e83fa011e8 *gd1987-09-23d2t02.flac
1d24c22e089ddf12ce1d2f43a03b4196 *gd1987-09-23d2t03.flac
d8e9bab3e6d6c60d5ac75b066f54d922 *gd1987-09-23d2t04.flac
654c788885c3503333da5f98fd416fcf *gd1987-09-23d2t05.flac
b7626303da99ece36b2105e9d91a170f *gd1987-09-23d2t06.flac
2faba719dc53b8a21335b017e2330837 *gd1987-09-23d2t07.flac
db4a7a6d47d868ab36a47baa90b39a41 *gd1987-09-23d2t08.flac
2c41f68e520fbc145e9c438e9403858d *gd1987-09-23d2t09.flac
a97d5a1878b963a68d31e0a4606d0393 *gd1987-09-23d2t10.flac
85fa15a5b26771b57d2960b9b5e87cfb *gd1987-09-23d2t11.flac
a476b2efb0839143f7994001409d8ae7 *gd1987-09-23d2t12.flac
e6ee2a0070c47eb225ae38a126668310 *gd1987-09-23d2t13.flac
4660980e5d059d971a5dff32d405310f *gd1987-09-23d2t14.flac
ffp
gd1987-09-23d1t01.flac:b3af936a390d2d3e419333c5836e27d2
gd1987-09-23d1t02.flac:3b80755b59ed9523c7532f68e92f42a2
gd1987-09-23d1t03.flac:9a19018808d3923838dfd23a69dcf67a
gd1987-09-23d1t04.flac:2d29c54febaea89a5cba7eb01c820b91
gd1987-09-23d1t05.flac:e8f4e63beea70d81605d031e82cb627b
gd1987-09-23d1t06.flac:9eaf4b39fff21f044a5dd382fc314368
gd1987-09-23d1t07.flac:ecb1d2500f9fc34a157757f36c172ec6
gd1987-09-23d1t08.flac:7becf797e092db840d5db8eceeaaa2c1
gd1987-09-23d1t09.flac:0646458479920a084a392ceea837dd21
gd1987-09-23d2t01.flac:e76fe37c03a0ce6a42b50a0f115b4ba8
gd1987-09-23d2t02.flac:0b4112089134a9cbc0db30a12449991f
gd1987-09-23d2t03.flac:9c39ac6044bb674cc93ffce2f6a204e4
gd1987-09-23d2t04.flac:da42dc59fbf7d7a6c0b0cd889f172b67
gd1987-09-23d2t05.flac:6800197c6fc4b3b5fa12705cb3f88ab6
gd1987-09-23d2t06.flac:5ebfdd46aed82927ab2e7307c3c21674
gd1987-09-23d2t07.flac:c07105673116fd7717d3b1e1284c9bb5
gd1987-09-23d2t08.flac:fa583f35d7fcd87e0213f08a545bdff0
gd1987-09-23d2t09.flac:dcef6dea5ea730709ad59783adc251e2
gd1987-09-23d2t10.flac:18d98a2faf88a189abb5b069f62c9162
gd1987-09-23d2t11.flac:bb470a9d1e56972962425b875888ef6f
gd1987-09-23d2t12.flac:db8452de28c6420ee1f2eba7d6b3f57d
gd1987-09-23d2t13.flac:559579583fe3953b0d36e86f62b3e53c
gd1987-09-23d2t14.flac:a199272ce61b385f0b3ad958055a0af9

Comments
Add Comment
Other Sources (comments)
SBD>MC>DAT>CD; Terrible... (1) flac16; Source:... (0) flac16; taper : Joe... (0) Source / Lineage : Taper... (0) flac16; (original... (2) flac16; Matrix 2... (0) DTS-Audio-CD 5.1... (0) flac16/48kHz; 5.1... (0) flac24; Recording... (2) flac16; Recording... (0)
Date User Comment