Browse Collections Artists Sources   Search Dates

Add Show    List Management    Help


Grateful Dead 05/14/93
Sam Boyd Silver Bowl, U.N.L.V., Las Vegas, NV
Comments Add Comment    Source Collectors    Add to Collection    Add to Want List    History
Source # 137245 Other Sources
Entered by Matt Vernon
Checksums ffp , flac-md5
Disc Counts 0 / 0
Media Size Compressed: 868.04 MB (910209027 bytes)
Uncompressed: 1.66 GB (1786631920 bytes)
Date Circulated
Date Added
11/14/2016
11/14/2016
Source Summary flac16/48kHz; Recording Info: (FOB) Schoeps MK41 -> Dat (Panasonic SV-255/48k); Transfer Info: Dat (Sony R500) > Tascam DA-3000 > Samplitude Pro X3 > FLAC/48k; All Transfers and Mastering By Charlie Miller 
  Archive
Source Information - Download Text | Download Zip
Grateful Dead - May 14, 1993
Sam Boyd Silver Bowl - Las Vegas, NV

Recording Info:
(FOB) Schoeps MK41 -> Dat (Panasonic SV-255/48k)

Transfer Info:
Dat (Sony R500) > Tascam DA-3000 > Samplitude Pro X3 > FLAC/48k
(1 Discs FLAC)

All Transfers and Mastering By Charlie Miller
[email protected]
November 14, 2016

Set 1:

01 - Tuning
02 - Cold Rain And Snow >
03 - Wang Dang Doodle
04 - Lazy River Road
05 - Queen Jane Approximately
06 - Ramble On Rose
07 - Black Throated Wind
08 - Liberty

Set 2:

09 - Tuning
10 - Scarlet Begonias >
11 - Fire On The Mountain
12 - Way To Go Home
13 - Corrina >
14 - Uncle John's Band >
15 - Drums >
16 - Space >
17 - I Need A Miracle >
18 - Standing On The Moon >
19 - Sugar Magnolia

Encore:
20 - I Fought The Law


SHNTOOL OUTPUT:
    length     expanded size    cdr  WAVE problems  fmt   ratio  filename
     2:35.380      29832948 B   cxx   --   ---xx   flac  0.3878  01 Tuning.flac
     6:01.174      69345464 B   cxx   --   ---xx   flac  0.5108  02 Cold Rain And Snow.flac
     6:25.646      74044104 B   cxx   --   ---xx   flac  0.5199  03 Wang Dang Doodle.flac
     8:08.463      93784952 B   cxx   --   ---xx   flac  0.4917  04 Lazy River Road.flac
     8:20.725      96139332 B   cxx   --   ---xx   flac  0.4994  05 Queen Jane Approximately.flac
     7:47.845      89826276 B   cxx   --   ---xx   flac  0.5183  06 Ramble On Rose.flac
     7:05.046      81608840 B   cxx   --   ---xx   flac  0.5421  07 Black Throated Wind.flac
     6:48.905      78509812 B   cxx   --   ---xx   flac  0.5477  08 Liberty.flac
     2:41.271      30964148 B   cxx   --   ---xx   flac  0.3875  09 Tuning.flac
     6:57.395      80139804 B   cxx   --   ---xx   flac  0.5440  10 Scarlet Begonias.flac
    15:40.457     180567812 B   cxx   --   ---xx   flac  0.5154  11 Fire On The Mountain.flac
     6:46.994      78142904 B   cxx   --   ---xx   flac  0.5617  12 Way To Go Home.flac
     9:43.682     112066940 B   cxx   --   ---xx   flac  0.5571  13 Corinna.flac
    11:59.339     138113048 B   cxx   --   ---xx   flac  0.5400  14 Uncle John's Band.flac
    10:33.653     121661432 B   cxx   --   ---xx   flac  0.4411  15 Drums.flac
     9:53.915     114031732 B   cxx   --   ---xx   flac  0.3833  16 Space.flac
     4:11.422      48273088 B   cxx   --   ---xx   flac  0.5451  17 I Need A Miracle.flac
     8:57.570     103213404 B   cxx   --   ---xx   flac  0.5097  18 Standing On The Moon.flac
    11:26.853     131875896 B   cxx   --   ---xx   flac  0.5366  19 Sugar Magnolia.flac
     2:59.635      34489984 B   cxx   --   ---xx   flac  0.5848  20 I Fought The Law.flac
   155:05.370    1786631920 B                            0.5095  (20 files)


Show Checksums
ffp
01 Tuning.flac:c0b7f87f092e77a282b9e82ca9144206
02 Cold Rain And Snow.flac:206805a951d9e3342704593ab6117dde
03 Wang Dang Doodle.flac:7879290bd8d77ba16dd495ad839bee48
04 Lazy River Road.flac:b28581009457422702b8264def4a58ec
05 Queen Jane Approximately.flac:572153a25edae0a2c906917994cac469
06 Ramble On Rose.flac:46d87707439d59d1867551c2720b0a73
07 Black Throated Wind.flac:15c076c1f453f6bf386fc1107ec0a711
08 Liberty.flac:25c08fb408f064ffae988299818a56b0
09 Tuning.flac:1c8df62e33a2f12e8c52f8207f86f99e
10 Scarlet Begonias.flac:dc342ba27b9b5c80d33da3493190cd74
11 Fire On The Mountain.flac:00f141cf765975856d6b2af1095bc83d
12 Way To Go Home.flac:5de86cdf5b95ca0218dfbdae8fcb2953
13 Corinna.flac:a6e13f93ae8b3e6cb8ff0588f1e425f8
14 Uncle John's Band.flac:59d6a3ba335cdb562354b0c409dd05e9
15 Drums.flac:a07b04d4eeb588c04400e919051e6a75
16 Space.flac:64d73ad8aabde77f3568e3dade23e494
17 I Need A Miracle.flac:42d41e455197c08a117c25831ab36b67
18 Standing On The Moon.flac:8dcc03a3bae0148eb7737c78e0aba930
19 Sugar Magnolia.flac:2ff30a7d25f22c965621c6f1724624c1
20 I Fought The Law.flac:312de9877fbe8d247838c5f6c7062877
flac-md5
78f4f103e262c0b34375ce63df7a0476 *01 Tuning.flac
3eb2915ccd01739ffbaf89e71e0e1fd2 *02 Cold Rain And Snow.flac
29ee38e740a68e51896d5f0ae1961f17 *03 Wang Dang Doodle.flac
4741ef7669a4cd2754b9e34eb5298f79 *04 Lazy River Road.flac
9f73a2e289b53f5ab575956ceed7def4 *05 Queen Jane Approximately.flac
db98cc518ec996cee641159530ec86dd *06 Ramble On Rose.flac
782b5cf57c296df4039aa9238be02ccf *07 Black Throated Wind.flac
4d51d19055f315f28608e50e4bf77f5f *08 Liberty.flac
5ad88c6198bd51db34481e29eb7a6cc1 *09 Tuning.flac
f40a7456de5faf621b57f8b609f1104d *10 Scarlet Begonias.flac
733372f9c95d7b678edfbba696fe126d *11 Fire On The Mountain.flac
22bd87d44c0f9e8365a20624b625017e *12 Way To Go Home.flac
21ea20fcaf9a020c5cc774aba254bd76 *13 Corinna.flac
8c91b1660a95bd0670d94c84c89a6609 *14 Uncle John's Band.flac
ba2161c2c0f6d517d8f0a35ecf4506ce *15 Drums.flac
11ae0e054d098c8c736c70fb07a03869 *16 Space.flac
f8465867c489a145097e403fe962fad2 *17 I Need A Miracle.flac
0586b6ff0528457e42a73333af72bf49 *18 Standing On The Moon.flac
f6c7a9d050acf3472391e810b8159982 *19 Sugar Magnolia.flac
5a4110f81fd27a9621deb49d9e9b88ab *20 I Fought The Law.flac

Comments
Add Comment
Other Sources (comments)
A : ? > DAT > CDR > EAC >... (0) flac16; Sennheiser... (0) flac16; Recording... (0) flac24; Recording... (0) flac16; Recording... (0) flac16/48kHz; Master... (0)
Date User Comment