Browse Collections Artists Sources   Search Dates

Add Show    List Management    Help


Grateful Dead 05/15/93
Sam Boyd Silver Bowl, U.N.L.V., Las Vegas, NV
Comments Add Comment    Source Collectors    Add to Collection    Add to Want List    History
Source # 137246 Other Sources
Entered by Matt Vernon
Checksums ffp , flac-md5
Disc Counts 0 / 0
Media Size Compressed: 747.99 MB (784325519 bytes)
Uncompressed: 1.47 GB (1573045708 bytes)
Date Circulated
Date Added
11/14/2016
11/14/2016
Source Summary flac16/48kHz; Recording Info: (FOB) Schoeps MK41 -> Dat (Panasonic SV-255/48k); Transfer Info: Dat (Sony R500) > Tascam DA-3000 > Samplitude Pro X3 > FLAC/48k; All Transfers and Mastering By Charlie Miller 
  Archive
Source Information - Download Text | Download Zip
Grateful Dead - May 15, 1993
Sam Boyd Silver Bowl - Las Vegas, NV

Recording Info:
(FOB) Schoeps MK41 -> Dat (Panasonic SV-255/48k)

Transfer Info:
Dat (Sony R500) > Tascam DA-3000 > Samplitude Pro X3 > FLAC/48k
(1 DVD FLAC)

All Transfers and Mastering By Charlie Miller
[email protected]
November 14, 2016

Set 1:
01 - Tuning
02 - Picasso Moon
03 - Peggy-O
04 - The Same Thing
05 - Tennessee Jed
06 - Broken Arrow
07 - Bird Song

Set 2:
08 - Tuning
09 - Here Comes Sunshine
10 - Playing In The Band >
11 - Crazy Fingers >
12 - Playing In The Band >
13 - Drums >
14 - Space >
15 - All Along The Watchtower >
16 - Days Between >
17 - One More Saturday Night

Encore:
18 - Encore Break
19 - Lucy In The Sky With Diamonds


SHNTOOL OUTPUT:
    length     expanded size    cdr  WAVE problems  fmt   ratio  filename
     2:15.494      26014860 B   cxx   --   ---xx   flac  0.4058  01 Tuning.flac
     7:04.172      81441096 B   cxx   --   ---xx   flac  0.5508  02 Picasso Moon.flac
     7:52.369      90694964 B   cxx   --   ---xx   flac  0.4702  03 Peggy-O.flac
     7:29.673      86337224 B   cxx   --   ---xx   flac  0.5189  04 The Same Thing.flac
     9:15.346     106626432 B   cxx   --   ---xx   flac  0.5218  05 Tennessee Jed.flac
     5:15.200      60518504 B   cxx   --   ---xx   flac  0.5206  06 Broken Arrow.flac
    14:33.451     167702616 B   cxx   --   ---xx   flac  0.5134  07 Bird Song.flac
     1:23.956      16119604 B   cxx   --   ---xx   flac  0.4027  08 Tuning.flac
     7:12.516      83043172 B   cxx   --   ---xx   flac  0.5705  09 Here Comes Sunshine.flac
     9:13.715     106313300 B   cxx   --   ---xx   flac  0.5334  10 Playing In The Band.flac
    10:48.558     124523096 B   cxx   --   ---xx   flac  0.5071  11 Crazy Fingers.flac
     3:53.030      44741820 B   cxx   --   ---xx   flac  0.5172  12 Playing In The Band.flac
    12:07.664     139711488 B   cxx   --   ---xx   flac  0.4353  13 Drums.flac
     9:23.308     108155140 B   cxx   --   ---xx   flac  0.3980  14 Space.flac
     5:16.371      60743328 B   cxx   --   ---xx   flac  0.5253  15 All Along The Watchtower.flac
    10:13.621     117815260 B   cxx   --   ---xx   flac  0.4914  16 Days Between.flac
     5:01.380      57864992 B   cxx   --   ---xx   flac  0.5569  17 One More Saturday Night.flac
     3:46.054      43402428 B   cxx   --   ---xx   flac  0.4041  18 Encore Break.flac
     4:27.064      51276384 B   cxx   --   ---xx   flac  0.5446  19 Lucy In The Sky With Diamonds.flac
   136:32.942    1573045708 B                            0.4986  (19 files)


Show Checksums
ffp
01 Tuning.flac:de18ef3c86383a1f61ed25a42f7cc486
02 Picasso Moon.flac:fcc1303ef22794f44eb3a648b721f56f
03 Peggy-O.flac:c32d2b54ea333be4824fd327e1a8fbdf
04 The Same Thing.flac:907f1fa2e0dc6359a084ea915e6f9eb9
05 Tennessee Jed.flac:6784eeafcfb88e5438a9dbfbdcfa17f8
06 Broken Arrow.flac:ebbef41d0f6f4a7f0febcad515939e60
07 Bird Song.flac:aa77a1f6f2104905654860927073d974
08 Tuning.flac:f513bceb7b54d588b695d637d18632f2
09 Here Comes Sunshine.flac:fa342759a3b8ac03f385b711af8fa5bc
10 Playing In The Band.flac:7074db365223a1b7c6fc4014c9e2183b
11 Crazy Fingers.flac:96c35a60336ca625a6ea3e1e55be036a
12 Playing In The Band.flac:59be3bf63cc6841f5b5f91905ec6725b
13 Drums.flac:d1c35471bc6f22a18bdbe61029284ad9
14 Space.flac:8cf051a354d2e3eadc21d918538a3313
15 All Along The Watchtower.flac:43c8e5822167433b02e587308619ec1f
16 Days Between.flac:b17a81afb6641dc06f5f294abed519ab
17 One More Saturday Night.flac:cb4a9e962e2666373c1a82de5b516874
18 Encore Break.flac:f32d851b74d1f0338d7cc35c854f39b4
19 Lucy In The Sky With Diamonds.flac:ff0ebab96310b6e3551441d18b8b3f53
flac-md5
160089ca160f068af1a99b020cc2ca23 *01 Tuning.flac
a845591fd7201cddddec4a3e5c440d5f *02 Picasso Moon.flac
312c601a9447ddb59aa6af0cae9bb2cc *03 Peggy-O.flac
e1d0845beaabbd19380e4871bde25ff9 *04 The Same Thing.flac
1df92b738b5bf98ad2fba1d439edea66 *05 Tennessee Jed.flac
e15fba3c2d3d51ed2121c1f2a75d1285 *06 Broken Arrow.flac
3e1765078c529189e225977029a3333f *07 Bird Song.flac
5d67ff0d410dae8d7b3b4ccf17cdae47 *08 Tuning.flac
cf8676858e336231e36145bb5404abe1 *09 Here Comes Sunshine.flac
961e48946dac9890752ce29a44bec36a *10 Playing In The Band.flac
583e73d752ede190b371ab477ed86316 *11 Crazy Fingers.flac
1fff521a7836be2c79bd6df8e0605a44 *12 Playing In The Band.flac
714315c6ebb9329a2812c38f99bdb088 *13 Drums.flac
16426e7c42dedc9d2d11018845de770a *14 Space.flac
f13e9ab44d5fe45ee5e8f4262d349228 *15 All Along The Watchtower.flac
6f3e3e3f33a2a54a191a3b3775a106db *16 Days Between.flac
9cdc2b880093f688256a16e6233d239d *17 One More Saturday Night.flac
a8305a72877d0068d8c0c3b4135061c6 *18 Encore Break.flac
499a2f2614c66ee805dee78db77e4be8 *19 Lucy In The Sky With Diamonds.flac

Comments
Add Comment
Other Sources (comments)
A : Schoeps CMC 521's > DAT... (0) flac16; Recording... (0) flac24; Recording... (0) flac16; Recording... (0) flac16/48kHz; Set 2... (0)
Date User Comment