Browse Collections Artists Sources   Search Dates

Add Show    List Management    Help


Terrapin Flyer 11/13/16
Owsley's Golden Road, Boulder, CO
Comments Add Comment    Source Collectors    Add to Collection    Add to Want List    History
Source # 137249 Other Sources
Entered by x poordevil
Checksums TF_2016-11-13.ffp
Disc Counts 0 / 0
Media Size Compressed: 721.52 MB (756568555 bytes)
Date Circulated
Date Added
11/15/2016
11/15/2016
Source Summary 3 source matrix. Source 1 : DPA 4022 (XY) > Grace V3 > > Tascam DR680 Source 2 : DPA 4060 (AB) - 3 foot spread)) > Naiant little Box > Tascam DR680 Source 3: SBD (tape out (RCA)) > Tascam DR680 Location: Directly in front monitor on left side with SBD feed. Mic stand at 8 Feet. Transfer: Tascam Dr680 (24/96) wav -> USB cable -> PC Editing: Wavelab plugins -> Flac(16) 
Source Information - Download Text | Download Zip
  Terrapin Flyer with Melvin Seals
  Nov 13, 2016
  Owsley's Golden Road
  Boulder, CO
  Total Time = 151:11

  3 source matrix.

  Source 1 : DPA 4022 (XY) > Grace V3 >
           > Tascam DR680

  Source 2 : DPA 4060 (AB) - 3 foot spread))
             > Naiant little Box > Tascam DR680

  Source 3: SBD (tape out (RCA)) > Tascam DR680

  Location: Directly in front monitor
  on left side with SBD feed. Mic stand
  at 8 Feet.

  Transfer: Tascam Dr680 (24/96) wav ->
  USB cable -> PC

  Editing: Wavelab plugins -> Flac(16)

  MD5's and SBE checked and verified.
  11/14/2016

  Recorded by Patrick H.

  Set 1 (65:32)
  01 Love in the Afternoon 6:10
  02 I'll Take A Melody 10:39
  03 Stop that Train 9:20
  04 Russian Lullaby * 11:35
  05 I'll be with Thee 5:42
  06 Gomorrah 10:53
  07 Tangled Up in Blue 11:13

  Set 2 (85:30)
  01 Iko Iko 9:02
  02 Feel Like a Stranger 7:39
  03 Scarlet Begonias > Fire 17:00
  04 He's Gone > 8:55
  05 Jam > 3:32
  06 Truckin 8:29
  07 Lucky Old Son 10:27
  08 Good Lovin' 9:43
  09 Band Introduction 3:25
  10 Mission in the Rain 7:18

* With Trumpet

  Notes: This was the third night of a
  three day run at Owsley's. First
  song mic stand at 6 feet rest of show
  moved to 8 feet high.

  Start time: 4:15PM.
  End time: 8:00 PM.

  Sound at the venue was pretty good.
  Both sets processed differently.
  Crowd noise can be heard.

  Thanks to Owsleys FOH and staff
  for assistance.

  Performance: A
  Sound Quality: B+/A-

  Support Live Music!

  shntool
    length     expanded size    cdr  WAVE problems  fmt   ratio  filename
     6:10.44       65371532 B   ---   --   -----    wav  1.0000  TF_2016-11-13_S101.wav
    10:39.60      112860764 B   ---   --   -----    wav  1.0000  TF_2016-11-13_S102.wav
     9:20.57       98918108 B   ---   --   -----    wav  1.0000  TF_2016-11-13_S103.wav
    11:35.66      122753276 B   ---   --   -----    wav  1.0000  TF_2016-11-13_S104.wav
     5:42.18       60371180 B   ---   --   -----    wav  1.0000  TF_2016-11-13_S105.wav
    10:53.41      115285676 B   ---   --   -----    wav  1.0000  TF_2016-11-13_S106.wav
    11:13.01      118719596 B   ---   --   -----    wav  1.0000  TF_2016-11-13_S107.wav
     9:02.51       95728796 B   ---   --   -----    wav  1.0000  TF_2016-11-13_S201.wav
     7:39.11       80993516 B   ---   --   -----    wav  1.0000  TF_2016-11-13_S202.wav
    17:00.55      180057404 B   ---   --   -----    wav  1.0000  TF_2016-11-13_S203.wav
     8:55.64       94524572 B   ---   --   -----    wav  1.0000  TF_2016-11-13_S204.wav
     3:32.20       37443884 B   ---   --   -----    wav  1.0000  TF_2016-11-13_S205.wav
     8:29.21       89837036 B   ---   --   -----    wav  1.0000  TF_2016-11-13_S206.wav
    10:27.30      110673404 B   ---   --   -----    wav  1.0000  TF_2016-11-13_S207.wav
     9:43.41      102937676 B   ---   --   -----    wav  1.0000  TF_2016-11-13_S208.wav
     3:25.69       36324332 B   ---   --   -----    wav  1.0000  TF_2016-11-13_S209.wav
     7:18.67       77420828 B   ---   --   -----    wav  1.0000  TF_2016-11-13_S210.wav
   151:11.41     1600221580 B                            1.0000  (17 files)

  ffp
TF_2016-11-13_S101.flac:b0eb23585381f5e014d7d52d99ddeab8
TF_2016-11-13_S102.flac:5b4e1d0f11085b9d290f862056c795ed
TF_2016-11-13_S103.flac:bbcef9f1524b0ec72fce4fa1f6c28556
TF_2016-11-13_S104.flac:2dbbe8adcb6172677df8b486308ffe0d
TF_2016-11-13_S105.flac:30dce2ad2b6ce8df6fc7f88d4049385f
TF_2016-11-13_S106.flac:47e43994bc32f3dd2e5e1997694c9460
TF_2016-11-13_S107.flac:8e5cf031e07098fe9f72ce0138f31206
TF_2016-11-13_S201.flac:c92351914aa96e74261a60e02d50463d
TF_2016-11-13_S202.flac:0152e289318254ba1b8f67a1e386fa80
TF_2016-11-13_S203.flac:052e9d9590e2e76dad2a828887d0cc6a
TF_2016-11-13_S204.flac:918ed7d9950451af2b67ecba6955f879
TF_2016-11-13_S205.flac:ce5541c0aa2cb50ba9a588d6adf4dd2d
TF_2016-11-13_S206.flac:999e39040b81e58f5c1cb0606712f85b
TF_2016-11-13_S207.flac:060443e6ad231c66dce2f45d94165e07
TF_2016-11-13_S208.flac:14ad395a126d54073d9c462d0fa785af
TF_2016-11-13_S209.flac:90f42e1511630fe3e4306c0fcc4cc74c
TF_2016-11-13_S210.flac:07ff1fe5cbae068950b17e6a03757d5c

Show Checksums
TF_2016-11-13.ffp
TF_2016-11-13_S101.flac:b0eb23585381f5e014d7d52d99ddeab8
TF_2016-11-13_S102.flac:5b4e1d0f11085b9d290f862056c795ed
TF_2016-11-13_S103.flac:bbcef9f1524b0ec72fce4fa1f6c28556
TF_2016-11-13_S104.flac:2dbbe8adcb6172677df8b486308ffe0d
TF_2016-11-13_S105.flac:30dce2ad2b6ce8df6fc7f88d4049385f
TF_2016-11-13_S106.flac:47e43994bc32f3dd2e5e1997694c9460
TF_2016-11-13_S107.flac:8e5cf031e07098fe9f72ce0138f31206
TF_2016-11-13_S201.flac:c92351914aa96e74261a60e02d50463d
TF_2016-11-13_S202.flac:0152e289318254ba1b8f67a1e386fa80
TF_2016-11-13_S203.flac:052e9d9590e2e76dad2a828887d0cc6a
TF_2016-11-13_S204.flac:918ed7d9950451af2b67ecba6955f879
TF_2016-11-13_S205.flac:ce5541c0aa2cb50ba9a588d6adf4dd2d
TF_2016-11-13_S206.flac:999e39040b81e58f5c1cb0606712f85b
TF_2016-11-13_S207.flac:060443e6ad231c66dce2f45d94165e07
TF_2016-11-13_S208.flac:14ad395a126d54073d9c462d0fa785af
TF_2016-11-13_S209.flac:90f42e1511630fe3e4306c0fcc4cc74c
TF_2016-11-13_S210.flac:07ff1fe5cbae068950b17e6a03757d5c

Comments
Add Comment
Date User Comment