Browse Collections Artists Sources   Search Dates

Add Show    List Management    Help


Grateful Dead 05/22/93
Shoreline Amphitheatre, Mountain View, CA
Comments Add Comment    Source Collectors    Add to Collection    Add to Want List    History
Source # 137254 Other Sources
Entered by Matt Vernon
Checksums ffp , flac-md5
Disc Counts 0 / 0
Media Size Compressed: 911.41 MB (955681512 bytes)
Uncompressed: 1.58 GB (1696022932 bytes)
Date Circulated
Date Added
11/16/2016
11/16/2016
Source Summary flac16/48kHz; Recording Info: (FOB) Schoeps MK41 > Dat Master (Panasonic SV-255/48k); Transfer Info: Dat Master (Sony R500) > Tascam DA-3000 > Samplitude Pro X3 Suite > FLAC/48k; All Transfers and Mastering By Charlie Miller 
  Archive
Source Information - Download Text | Download Zip
Grateful Dead - May 22, 1993
Shoreline Amphitheatre - Mountain View, CA

Recording Info:
(FOB) Schoeps MK41 > Dat Master (Panasonic SV-255/48k)

Transfer Info:
Dat Master (Sony R500) > Tascam DA-3000 > Samplitude Pro X3 Suite > FLAC/48k
(1 DVD FLAC)

All Transfers and Mastering By Charlie Miller
[email protected]
November 16, 2016

Set 1:
01 - Tuning
02 - Mississippi Half-Step Uptown Toodeloo
03 - Little Red Rooster
04 - Brown Eyed Women
05 - Broken Arrow
06 - Supplication
07 - Stagger Lee
08 - Promised Land

Set 2:
09 - Tuning
10 - Foolish Heart >
11 - Man Smart (Woman Smarter)
12 - Ship Of Fools
13 - Corrina >
14 - Drums >
15 - Space >
16 - The Last Time >
17 - Stella Blue >
18 - One More Saturday Night

Encore:
19 - Encore Break
20 - I Fought The Law


SHNTOOL OUTPUT:
   length     expanded size    cdr  WAVE problems  fmt   ratio  filename
    6:02.853      69667844 B   cxx   --   ---xx   flac  0.4787  01 Tuning.flac
   10:03.868     115942632 B   cxx   --   ---xx   flac  0.5841  02 Mississippi Half-Step Uptown Toodeloo.flac
    9:20.949     107702200 B   cxx   --   ---xx   flac  0.5778  03 Little Red Rooster.flac
    7:30.228      86443740 B   cxx   --   ---xx   flac  0.5871  04 Brown Eyed Women.flac
    5:55.455      68247400 B   cxx   --   ---xx   flac  0.5698  05 Broken Arrow.flac
    5:22.867      61990576 B   cxx   --   ---xx   flac  0.5815  06 Supplication.flac
    6:30.706      75015580 B   cxx   --   ---xx   flac  0.6033  07 Stagger Lee.flac
    4:43.151      54365084 B   cxx   --   ---xx   flac  0.6041  08 Promised Land.flac
    0:56.533      10854416 B   cxx   --   ---xx   flac  0.4529  09 Tuning.flac
    8:46.746     101135200 B   cxx   --   ---xx   flac  0.5835  10 Foolish Heart.flac
    8:45.079     100815140 B   cxx   --   ---xx   flac  0.5824  11 Man Smart (Woman Smarter).flac
    7:15.417      83600040 B   cxx   --   ---xx   flac  0.5752  12 Ship Of Fools.flac
   12:02.390     138698972 B   cxx   --   ---xx   flac  0.5896  13 Corrina.flac
   14:59.466     172697524 B   cxx   --   ---xx   flac  0.4973  14 Drums.flac
   12:00.791     138391948 B   cxx   --   ---xx   flac  0.4862  15 Space.flac
    6:34.015      75650928 B   cxx   --   ---xx   flac  0.6142  16 The Last Time.flac
    9:12.451     106070548 B   cxx   --   ---xx   flac  0.5599  17 Stella Blue.flac
    4:54.964      56633108 B   cxx   --   ---xx   flac  0.6267  18 One More Saturday Night.flac
    2:37.745      30287116 B   cxx   --   ---xx   flac  0.5210  19 Encore Break.flac
    3:37.775      41812936 B   cxx   --   ---xx   flac  0.6172  20 I Fought The Law.flac
  147:13.448    1696022932 B                            0.5635  (20 files)


Show Checksums
ffp
01 Tuning.flac:8ec9ee44f06cbd6734b987f172312203
02 Mississippi Half-Step Uptown Toodeloo.flac:ebda2beb6f02240efe8e337f56c48d9f
03 Little Red Rooster.flac:1f6175baf8f041ff703947366f3f5acf
04 Brown Eyed Women.flac:cf0705cd1b0095d4847529092b28017f
05 Broken Arrow.flac:c13b069daa544d228195c0e96341c56e
06 Supplication.flac:af2c3fcb3d884c6a1660e34de9ce3037
07 Stagger Lee.flac:ac367dab35bf96c68473c329234787b6
08 Promised Land.flac:e7ac7aeff6b9a904c61511e70c44aa59
09 Tuning.flac:edcc5558104f41b450650f6bdd194242
10 Foolish Heart.flac:eb60a127ce1fd732b1b89c5f480074ae
11 Man Smart (Woman Smarter).flac:59f4a293d73ae665cce529cd532eae94
12 Ship Of Fools.flac:45bc1ce68c3495b06497722d79e674f1
13 Corrina.flac:de934e8ece1640601a69b117c225b1cc
14 Drums.flac:33f40b5512c7e53abb38ef0fbd6408cb
15 Space.flac:1c69e3755aea814159b093dfb99519d0
16 The Last Time.flac:28d6a320d5b9490236daa02576b34db3
17 Stella Blue.flac:1260d3e8d0213ecdf5ba4894dc7bb191
18 One More Saturday Night.flac:bb089c2257880c4be3bd4b737e6feb65
19 Encore Break.flac:0a498e48b6c439b056e7f8ffdd374685
20 I Fought The Law.flac:bf13f7a6e6c1471b7e0da00e203cf90d
flac-md5
b6f168e95e9a8a10a02d7fc7a0c15d80 *01 Tuning.flac
bd6e80c17fbdc14d5ead96baf66c2fe2 *02 Mississippi Half-Step Uptown Toodeloo.flac
563d25c1ac1e72bfd0484129ee782cc6 *03 Little Red Rooster.flac
3b33852a9039048b137180d5dd077a91 *04 Brown Eyed Women.flac
d3a0037837a8c29332c73c9266b40c86 *05 Broken Arrow.flac
b0479edc2af1fdedd42b98492de8b645 *06 Supplication.flac
fdae1da27f2d5a90c4470ed779a4db41 *07 Stagger Lee.flac
c779668f39e2bc2478d91fbbf3e161ea *08 Promised Land.flac
0d63f3a0e52bbcc4273bc88b356a18b9 *09 Tuning.flac
e3e6c55a68651cb2fef3d163a0c063b6 *10 Foolish Heart.flac
13418152ce20d92cf68b9ab25be1f9ec *11 Man Smart (Woman Smarter).flac
0da49a3089ddd352bfb7ce997fb84909 *12 Ship Of Fools.flac
e1997ed30c01856661aaa0255577204e *13 Corrina.flac
ab937c42ec1ac566f391d4120d3ab6ff *14 Drums.flac
e048b6ac5cba42d7c68f60147ced4cd4 *15 Space.flac
1c30376ef6c2eaef322709624c57d735 *16 The Last Time.flac
c5682aad7b19f8a00889e00a739a7299 *17 Stella Blue.flac
893b964f101a2530aff29cf4f6a35f90 *18 One More Saturday Night.flac
089c1b4af91ba40dfb443761fe7f683f *19 Encore Break.flac
5ebb2ab7d16e2d18222c6f3f7d58bcba *20 I Fought The Law.flac

Comments
Add Comment
Other Sources (comments)
SBD>DAT>??>DAT>CDR; Seeded... (0) SBD -> Dat -> Sonic... (1) flac16; Source:... (0) flac16/48kHz;... (0)
Date User Comment