Browse Collections Artists Sources   Search Dates

Add Show    List Management    Help


Grateful Dead 05/23/93
Shoreline Amphitheatre, Mountain View, CA
Comments Add Comment    Source Collectors    Add to Collection    Add to Want List    History
Source # 137255 Other Sources
Entered by Matt Vernon
Checksums ffp , flac-md5
Disc Counts 0 / 0
Media Size Compressed: 930.23 MB (975420458 bytes)
Uncompressed: 1.6 GB (1717616572 bytes)
Date Circulated
Date Added
11/16/2016
11/16/2016
Source Summary flac16/48kHz; Recording Info: (FOB) Schoeps MK41 > Dat Master (Panasonic SV-255/48k); Transfer Info: Dat Master (Sony R500) > Tascam DA-3000 > Samplitude Pro X3 Suite > FLAC/48k; All Transfers and Mastering By Charlie Miller 
  Archive
Source Information - Download Text | Download Zip
Grateful Dead - May 23, 1993
Shoreline Amphitheatre - Mountain View, CA

Recording Info:
(FOB) Schoeps MK41 > Dat Master (Panasonic SV-255/48k)

Transfer Info:
Dat Master (Sony R500) > Tascam DA-3000 > Samplitude Pro X3 Suite > FLAC/48k
(1 DVD FLAC)

All Transfers and Mastering By Charlie Miller
[email protected]
November 16, 2016

Set 1:
01 - Tuning
02 - Jack Straw
03 - Loser
04 - It's All Over Now
05 - Just Like Tom Thumb's Blues
06 - Bird Song
07 - The Music Never Stopped

Set 2:
08 - Tuning
09 - Iko Iko
10 - Wave To The Wind
11 - Saint Of Circumstance >
12 - Terrapin Station >
13 - Drums >
14 - Space >
15 - I Need A Miracle >
16 - Days Between >
17 - Not Fade Away

Encore:
18 - Encore Break
19 - Lucy In The Sky With Diamonds


SHNTOOL OUTPUT:
    length     expanded size    cdr  WAVE problems  fmt   ratio  filename
     2:49.255      32497044 B   cxx   --   ---xx   flac  0.4697  01 Tuning.flac
     7:15.051      83529916 B   cxx   --   ---xx   flac  0.5890  02 Jack Straw.flac
     7:43.680      89026656 B   cxx   --   ---xx   flac  0.5882  03 Loser.flac
     7:11.498      82847628 B   cxx   --   ---xx   flac  0.5886  04 It's All Over Now.flac
     5:26.786      62742948 B   cxx   --   ---xx   flac  0.5966  05 Tom Thumb's Blues.flac
    13:24.562     154475896 B   cxx   --   ---xx   flac  0.5910  06 Bird Song.flac
     8:35.952      99062816 B   cxx   --   ---xx   flac  0.5973  07 The Music Never Stopped.flac
     2:14.995      25919136 B   cxx   --   ---xx   flac  0.4391  08 Tuning.flac
    10:03.841     115937456 B   cxx   --   ---xx   flac  0.5745  09 Iko Iko.flac
     7:49.162      90079172 B   cxx   --   ---xx   flac  0.6036  10 Wave To The Wind.flac
     7:41.799      88665536 B   cxx   --   ---xx   flac  0.6041  11 Saint Of Circumstance.flac
    16:29.885     190057936 B   cxx   --   ---xx   flac  0.5668  12 Terrapin Station.flac
    11:23.113     131157732 B   cxx   --   ---xx   flac  0.5179  13 Drums.flac
    11:30.121     132503260 B   cxx   --   ---xx   flac  0.5049  14 Space.flac
     4:49.196      55525760 B   cxx   --   ---xx   flac  0.6046  15 I Need A Miracle.flac
     9:30.131     109465260 B   cxx   --   ---xx   flac  0.5493  16 Days Between.flac
     8:03.533      92838416 B   cxx   --   ---xx   flac  0.5712  17 Not Fade Away.flac
     2:29.327      28670848 B   cxx   --   ---xx   flac  0.5034  18 Encore Break.flac
     4:34.027      52613156 B   cxx   --   ---xx   flac  0.6137  19 Lucy In The Sky With Diamonds.flac
   149:05.915    1717616572 B                            0.5679  (19 files)


Show Checksums
ffp
01 Tuning.flac:b153d97c514a61b3b4e9b47785c456c6
02 Jack Straw.flac:5daaa5520261c526a0695f7e0c25f185
03 Loser.flac:e4ae11f4981d9fed402405c342f4aa92
04 It's All Over Now.flac:07d42f05b4af9cb059f87b978fe73c7e
05 Tom Thumb's Blues.flac:3fcd6fb57c591af8a781d7ff587b6057
06 Bird Song.flac:519a30239b4dd9eee515f8bc25cf606c
07 The Music Never Stopped.flac:3b36429540010472daf95585f2121b06
08 Tuning.flac:36197d7964ed70c2dafe8ed14e3f306d
09 Iko Iko.flac:2c468ddda135607e7f1f82511ae0d956
10 Wave To The Wind.flac:e2f733115ca8ef4ed90d3b71d3124980
11 Saint Of Circumstance.flac:303ccccc33e9cb5d604c9449c027b725
12 Terrapin Station.flac:a1f6253a5ab31337fa327a4176e1a530
13 Drums.flac:b869ad42f3165bad710ba246ee94b96a
14 Space.flac:8d344b57cec3ae6cb3b909651b7874e4
15 I Need A Miracle.flac:a9d3249220c72a0f69d554dd54b85745
16 Days Between.flac:c297d1f0ff598aa9fca32da6ca0922af
17 Not Fade Away.flac:81526f555101305f072e45d933bd8818
18 Encore Break.flac:e92f67f6f14863b53bd44a1d79cc2617
19 Lucy In The Sky With Diamonds.flac:1ff115d9d509e9f1af3f04678002c8d7
flac-md5
e9d4941f52ad3e2c6586444258de9a52 *01 Tuning.flac
88ebecc3f4fae57622d43d427457e4c3 *02 Jack Straw.flac
5ea9226d77580535bd52f15d29e8da35 *03 Loser.flac
2e776cfce2357c54b97f5e93a9b21988 *04 It's All Over Now.flac
18efcf363c4964bc5d5ab18ceb26c2ae *05 Tom Thumb's Blues.flac
8a7f01451b65a3b7194114cd7d3c73a8 *06 Bird Song.flac
a8cebcfa4dd6724c8b36dbded139f035 *07 The Music Never Stopped.flac
2909fdb1a4d406b49df3fbb3fc835f87 *08 Tuning.flac
a96bfe139dc3a98588ef196cb2c41ee6 *09 Iko Iko.flac
c977bff175b2593fdd5c7b5f41199127 *10 Wave To The Wind.flac
9db1aedc68814cb9f32efd38e5d2af48 *11 Saint Of Circumstance.flac
383309fceecf8f0282339f1fddc9c276 *12 Terrapin Station.flac
bfe6804703488082de28a108067736b7 *13 Drums.flac
cca82f547b755e928dfc771433859c80 *14 Space.flac
89fe4b34b44c17596f35962751a6776a *15 I Need A Miracle.flac
29fec1b3262d5b5d34ca814ab38bb606 *16 Days Between.flac
f57b1918f074c12edf22e3acce352d02 *17 Not Fade Away.flac
2efa3f5c8b3483698912afc7989f9589 *18 Encore Break.flac
c098b503f78ffe0f37fca694a84cc69d *19 Lucy In The Sky With Diamonds.flac

Comments
Add Comment
Other Sources (comments)
DSBD>DAT>CDR; Seeded to... (0) flac16; Neumann... (0) flac16/48kHz;... (0)
Date User Comment