Browse Collections Artists Sources   Search Dates

Add Show    List Management    Help


Grateful Dead 05/27/93
Cal Expo, Sacramento, CA
Comments Add Comment    Source Collectors    Add to Collection    Add to Want List    History
Source # 137258 Other Sources
Entered by Matt Vernon
Checksums ffp , flac-md5
Disc Counts 0 / 0
Media Size Compressed: 1.05 GB (1126805714 bytes)
Uncompressed: 1.87 GB (2005208244 bytes)
Date Circulated
Date Added
11/16/2016
11/16/2016
Source Summary flac16/48kHz; Recording Info: (FOB) Schoeps MK41 > Dat Master (Panasonic SV-255/48k); Transfer Info: Dat Master (Sony R500) > Tascam DA-3000 > Samplitude Pro X3 Suite > FLAC/48k; All Transfers and Mastering By Charlie Miller 
  Archive
Source Information - Download Text | Download Zip
Grateful Dead - May 27, 1993
Cal Expo Amphitheatre - Sacramento, CA

Recording Info:
(FOB) Schoeps MK41 > Dat Master (Panasonic SV-255/48k)

Transfer Info:
Dat Master (Sony R500) > Tascam DA-3000 > Samplitude Pro X3 Suite > FLAC/48k
(1 DVD FLAC)

All Transfers and Mastering By Charlie Miller
[email protected]
November 16, 2016

Set 1:
01 - Tuning
02 - Shakedown Street
03 - The Same Thing
04 - Dire Wolf
05 - Beat It On Down The Line
06 - High Time
07 - When I Paint My Masterpiece
08 - Cumberland Blues
09 - Promised Land

Set 2:
10 - Tuning
11 - Picasso Moon >
12 - Fire On The Mountain >
13 - Wave To The Wind >
14 - Cassidy >
15 - Uncle John's Band >
16 - Cassidy >
17 - Drums >
18 - Space >
19 - The Other One >
20 - Wharf Rat >
21 - Sugar Magnolia

Encore:
22 - Encore Break
23 - Gloria


SHNTOOL OUTPUT:
    length     expanded size    cdr  WAVE problems  fmt   ratio  filename
     2:41.506      31009204 B   cxx   --   ---xx   flac  0.4597  01 Tuning.flac
    14:10.132     163225328 B   cxx   --   ---xx   flac  0.6062  02 Shakedown Street.flac
     9:00.104     103700024 B   cxx   --   ---xx   flac  0.5653  03 The Same Thing.flac
     4:29.064      51660412 B   cxx   --   ---xx   flac  0.5774  04 Dire Wolf.flac
     3:23.504      39072876 B   cxx   --   ---xx   flac  0.6264  05 Beat It On Down The Line.flac
     8:51.052     101962048 B   cxx   --   ---xx   flac  0.5461  06 High Time.flac
     7:17.798      84057196 B   cxx   --   ---xx   flac  0.5586  07 When I Paint My Masterpiece.flac
     6:47.879      78312844 B   cxx   --   ---xx   flac  0.6043  08 Cumberland Blues.flac
     5:06.628      58872668 B   cxx   --   ---xx   flac  0.6283  09 Promised Land.flac
     3:39.149      42076688 B   cxx   --   ---xx   flac  0.4281  10 Tuning.flac
     7:48.405      89933880 B   cxx   --   ---xx   flac  0.6230  11 Picasso Moon.flac
    12:06.235     139437252 B   cxx   --   ---xx   flac  0.5633  12 Fire On The Mountain.flac
     7:30.239      86445844 B   cxx   --   ---xx   flac  0.5894  13 Wave To The Wind.flac
     6:49.912      78703116 B   cxx   --   ---xx   flac  0.6027  14 Cassidy.flac
     9:28.469     109146180 B   cxx   --   ---xx   flac  0.5717  15 Uncle John's Band.flac
     3:55.672      45248980 B   cxx   --   ---xx   flac  0.5661  16 Cassidy.flac
    11:51.858     136676788 B   cxx   --   ---xx   flac  0.4811  17 Drums.flac
     9:57.281     114678016 B   cxx   --   ---xx   flac  0.4550  18 Space.flac
    10:04.986     116157332 B   cxx   --   ---xx   flac  0.5554  19 The Other One.flac
    10:05.285     116214700 B   cxx   --   ---xx   flac  0.5577  20 Wharf Rat.flac
     9:45.346     112386492 B   cxx   --   ---xx   flac  0.6189  21 Sugar Magnolia.flac
     2:30.531      28901920 B   cxx   --   ---xx   flac  0.4663  22 Encore Break.flac
     6:42.752      77328456 B   cxx   --   ---xx   flac  0.5749  23 Gloria.flac
   174:03.788    2005208244 B                            0.5619  (23 files)


Show Checksums
ffp
01 Tuning.flac:5c0079ef5a439a4f2f7c6c0a43449941
02 Shakedown Street.flac:4298c133cf3447f3bafaea2885d65989
03 The Same Thing.flac:4af5f5164c8e2341bc95651f1d660821
04 Dire Wolf.flac:ba57170b8bd55781dd4e4457305d986c
05 Beat It On Down The Line.flac:4615525379e1cbe98926552440b0b333
06 High Time.flac:f149191c514dca377ccaff31cc6e8f41
07 When I Paint My Masterpiece.flac:fc17083694ba32985452db3ff334101b
08 Cumberland Blues.flac:3f1eb5463453366e49fdcaecb125bed4
09 Promised Land.flac:ff745e5fe12838cfb9f4ec3189a309ec
10 Tuning.flac:984ceee68fd7eab010fa92d431cacc0f
11 Picasso Moon.flac:ebeacd05140e88c9b4155b217d14f47c
12 Fire On The Mountain.flac:87e05b621a2fba0591ee27099b606099
13 Wave To The Wind.flac:5e1c42f315843ac34aad7166961d1a31
14 Cassidy.flac:70635f9f0bff810f6bca536c1a01df05
15 Uncle John's Band.flac:794b5ca1b7ed525a564bf75013eb0d8d
16 Cassidy.flac:cd575e52aff5511aea486d33cae3bfae
17 Drums.flac:468e77dccc732fcbff911052ec6d3f88
18 Space.flac:bdc875d63754fab2f9bc51d2c2a6f48c
19 The Other One.flac:48029fb85ca4d795c17b62f18a4f8d88
20 Wharf Rat.flac:a9ad5f304e0fea6f2621f2b6c6066313
21 Sugar Magnolia.flac:1345331926d6e814c731d4547b4ecedc
22 Encore Break.flac:6369b144223269d1b2afc9aa988f1e61
23 Gloria.flac:da27935e85ca42341ad24e761d98d365
flac-md5
739e7437030eece4892230b23433dd5c *01 Tuning.flac
254f4e4f221823939ae9fd9407ba3cbc *02 Shakedown Street.flac
a90d043db97bfa2088cd0387d5d8ca60 *03 The Same Thing.flac
bf0dc9b83688aae15667d8b022a39fd5 *04 Dire Wolf.flac
aa5f1da83b2698e1a984f9560af15381 *05 Beat It On Down The Line.flac
84728980df5a9f0645d9041199921e10 *06 High Time.flac
30d7fff2f48aacecc03a3012bd35bf5e *07 When I Paint My Masterpiece.flac
93c0dea3e2728f0c60053e818c77901a *08 Cumberland Blues.flac
a3699a79436e562c834c1d934771cd6c *09 Promised Land.flac
08e278b56802a58e108cd9fbe695d290 *10 Tuning.flac
45a2f0f53c18e9c936cbde59c78b1d48 *11 Picasso Moon.flac
13379c8e4313e81aa05b027ff1a2738d *12 Fire On The Mountain.flac
27ef15fa7e953d24d6fed0ca89367fe6 *13 Wave To The Wind.flac
f8d100ed18ed1d8e2573a02dac95b1ae *14 Cassidy.flac
3a64052700140b130553ab1a62da51e5 *15 Uncle John's Band.flac
fea9c53d8edba52a6692bc66c6245266 *16 Cassidy.flac
cff19c93f8637678bf8eade55396c94a *17 Drums.flac
43bab63c37da13dcf1792ddabb0c69fc *18 Space.flac
f51328c77e16b79c3a955fc9712af2e4 *19 The Other One.flac
cf24f704288e282ca1b1ddba197e8394 *20 Wharf Rat.flac
77b70cb957e834a7bb61f894d815c5ed *21 Sugar Magnolia.flac
51758844946ef51dc11573e484fe09c6 *22 Encore Break.flac
64a1e7f467987180128130d557dfb907 *23 Gloria.flac

Comments
Add Comment
Other Sources (comments)
M:C> D> transfer via... (3) flac16; SBD> Dat... (0) flac16;... (0) flac16; FOB Digital... (0) flac16; Sankens COS1... (0)
Date User Comment