Browse Collections Artists Sources   Search Dates

Add Show    List Management    Help


Grateful Dead 10/06/81
Rainbow Theater, London, England
Comments Add Comment    Source Collectors    Add to Collection    Add to Want List    History
Source # 137268 Other Sources
Entered by Matt Vernon
Checksums ffp , flac-md5
Disc Counts 0 / 0
Media Size Compressed: 1.1 GB (1180090229 bytes)
Uncompressed: 1.87 GB (2007677752 bytes)
Date Circulated
Date Added
11/20/2016
11/20/2016
Source Summary flac16; Soundboard; Sony L-750ESX-HFB Dynamicron EXCELLENT SUPER HIFI VIDEO CASSETTE-> Sony SLO-1800 STEREO VIDEOCASSETTE RECORDER-> Sony PCM-601ESD DIGITAL AUDIO PROCESSOR-> SP/DIF-> Mytek Stereo 192 Sample Rate Converter-> Upsampled to 44.1kHz/24bit->SP/DIF-> RME FIREFACE 800-> FireWire 400-> Lenovo K450e Desktop PC-> WaveLab 6.11; Editing and Mastering by Jamie Waddell in Wavelab 7.1; Track, FLAC and Pack by John Wenzel 
  Archive
Source Information - Download Text | Download Zip
Grateful Dead
Tuesday October 6, 1981
Rainbow Theatre
London, England

Soundboard

Sony L-750ESX-HFB Dynamicron EXCELLENT SUPER HIFI VIDEO CASSETTE->
Sony SLO-1800 STEREO VIDEOCASSETTE RECORDER->
Sony PCM-601ESD DIGITAL AUDIO PROCESSOR-> SP/DIF->
Mytek Stereo 192 Sample Rate Converter-> Upsampled to 44.1kHz/24bit->SP/DIF->
RME FIREFACE 800-> FireWire 400->
Lenovo K450e Desktop PC-> WaveLab 6.11

This recording was gratefully supplied by PO and Stucco TINA Holmes.

Editing and Mastering by Jamie Waddell in Wavelab 7.1
Track, FLAC and Pack by John Wenzel

16 bit 44.1kHz
a project **GEMS** Betamania Release 2016-11-20

--Set 1--
01 tuning
02 Shakedown Street >
03 New Minglewood Blues
04 It Must Have Been The Roses
05 Little Red Rooster
06 tuning
07 Althea
08 Me And My Uncle >
09 Mexicali Blues
10 Never Trust A Woman >
11 Cumberland Blues
12 Looks Like Rain >
13 Might As Well

--Set 2--
01 tuning
02 Man Smart (Woman Smarter)
03 High Time
04 Estimated Prophet >
05 He's Gone >
06 Drums >
07 Space with Blues for Allah Jam >
08 The Wheel >
09 Sugar Magnolia >
10 Stella Blue >
11 Good Lovin'
--Encore--
12 Sunshine Daydream ->
13 Brokedown Palace

Notes
-"Blues for Allah Jam" in space, Anwar Sadat was the third President of Egypt, serving from
October 1970 until his assassination by fundamentalist army officers this very day
-more tuning at start of show than CM's source, shnid 103627
-complete set 2 no music or tuning missing
-103627 patches last 4 seconds of Althea
-"it's polka time" intro to MAMU present here,
-more crowd after mingle wood and intro notes to roses present here, not on 103627
-103627 unpatched tape flip in high time , different spot than beta
-High Time patch about 40 seconds of 103627 till cut on all both sbd sources, then about 20
seconds of Richie S. AUD, shnid 126571, song now complete
-more tuning between high time and estimated
-about 2 mins of space patched with 103627
-patched in the end of Good Lovin' and start of SSDD with 126571, not on 103627
-103627 patches end of cut beta Brokedown until it runs out, 126571 patches last minute and
applause, song now complete.

originally shared at www.shnflac.net

    length     expanded size    cdr  WAVE problems  fmt   ratio  filename
     0:42.07        7425308 B   ---   --   ---xx   flac  0.5084  gd1981-10-06s1t01.flac
    12:12.37      129211868 B   ---   --   ---xx   flac  0.6100  gd1981-10-06s1t02.flac
     8:18.32       87922508 B   ---   --   ---xx   flac  0.5950  gd1981-10-06s1t03.flac
     6:47.04       71804252 B   ---   --   ---xx   flac  0.5718  gd1981-10-06s1t04.flac
     7:50.24       82964492 B   ---   --   ---xx   flac  0.6075  gd1981-10-06s1t05.flac
     2:14.62       23783468 B   ---   --   ---xx   flac  0.4873  gd1981-10-06s1t06.flac
     8:19.30       88094204 B   ---   --   ---xx   flac  0.6049  gd1981-10-06s1t07.flac
     3:03.39       32372972 B   ---   --   ---xx   flac  0.6207  gd1981-10-06s1t08.flac
     5:22.25       56859644 B   ---   --   ---xx   flac  0.6101  gd1981-10-06s1t09.flac
     7:24.05       78333404 B   ---   --   ---xx   flac  0.6010  gd1981-10-06s1t10.flac
     5:01.46       53204636 B   ---   --   ---xx   flac  0.6387  gd1981-10-06s1t11.flac
     9:22.72       99306188 B   ---   --   ---xx   flac  0.5869  gd1981-10-06s1t12.flac
     4:28.45       47381084 B   ---   --   ---xx   flac  0.6617  gd1981-10-06s1t13.flac
     0:36.12        6378668 B   ---   --   ---xx   flac  0.4836  gd1981-10-06s2t01.flac
     6:55.69       73368332 B   ---   --   ---xx   flac  0.6004  gd1981-10-06s2t02.flac
    10:16.29      108730652 B   ---   --   ---xx   flac  0.5398  gd1981-10-06s2t03.flac
    14:01.46      148460636 B   ---   --   ---xx   flac  0.5877  gd1981-10-06s2t04.flac
    14:49.09      156840812 B   ---   --   ---xx   flac  0.5699  gd1981-10-06s2t05.flac
    10:34.12      111865868 B   ---   --   ---xx   flac  0.5470  gd1981-10-06s2t06.flac
    10:51.26      114897596 B   ---   --   ---xx   flac  0.5367  gd1981-10-06s2t07.flac
     7:24.68       78481580 B   ---   --   ---xx   flac  0.6036  gd1981-10-06s2t08.flac
     5:00.37       53007068 B   ---   --   ---xx   flac  0.6637  gd1981-10-06s2t09.flac
     9:55.06      104972156 B   ---   --   ---xx   flac  0.5491  gd1981-10-06s2t10.flac
     8:55.64       94524572 B   ---   --   ---xx   flac  0.6529  gd1981-10-06s2t11.flac
     2:42.24       28633292 B   ---   --   ---xx   flac  0.6358  gd1981-10-06s2t12.flac
     6:30.24       68852492 B   ---   --   ---xx   flac  0.5511  gd1981-10-06s2t13.flac
   189:41.29     2007677752 B                            0.5878  (26 files)




Show Checksums
ffp
gd1981-10-06s1t01.flac:6a7f8e23f88ffeb33c870c67ad151bbf
gd1981-10-06s1t02.flac:4be6c3f5e213b3f036cb4605b235b2bb
gd1981-10-06s1t03.flac:5cfb16b8dca95cee80f69f7a0d03390f
gd1981-10-06s1t04.flac:9b9f9ce8fbda46278521409e83262ec2
gd1981-10-06s1t05.flac:9d6da529fe5c4321421b3751b18233d3
gd1981-10-06s1t06.flac:8518fb831d93804a23112cceadb786dc
gd1981-10-06s1t07.flac:7a3dc1fafcf1e9a9a1aed353e709783e
gd1981-10-06s1t08.flac:91fd8161b79464a62cddb22f94cdda61
gd1981-10-06s1t09.flac:672353576ef8f0d5dc2097020fce3cf0
gd1981-10-06s1t10.flac:c5f2e859abd4908d4ffd31747e9336de
gd1981-10-06s1t11.flac:b56a23d40fc36afb6b3f3a54864b2848
gd1981-10-06s1t12.flac:91d52ebf91a117a93563da85a7488d42
gd1981-10-06s1t13.flac:a77568569930ca0471fcaea231498e29
gd1981-10-06s2t01.flac:d6bd4921b9f2480002b9c2e5cc80f4e3
gd1981-10-06s2t02.flac:20c2fe8e2fd8a610e5592efc5d9f257d
gd1981-10-06s2t03.flac:025b975e62b562d90e21396efbbf6122
gd1981-10-06s2t04.flac:2c53904daa8471373de5b5d2179eac53
gd1981-10-06s2t05.flac:1aaa87f34eb33f07cc0920ca8266ff64
gd1981-10-06s2t06.flac:d06d3bd2f7693d20db55abcbca2ac89b
gd1981-10-06s2t07.flac:4d3f34a580d45c6b4d30c647f1a614d0
gd1981-10-06s2t08.flac:a22a80a16e40d9e4f9c5c0b83f91b4b7
gd1981-10-06s2t09.flac:63db4f28943077087c07ac946450bb2b
gd1981-10-06s2t10.flac:3066ec390ccd0ad931b2d145001ac837
gd1981-10-06s2t11.flac:d5a5274b0efe765938cbbf7ae84a0bb4
gd1981-10-06s2t12.flac:1606031b24c0ae59023cd21fab00fbaf
gd1981-10-06s2t13.flac:caa05fd444aee915942ce0311600f0fe
flac-md5
2b7e370b4a7543d31ce692a9c8dbe3a6 *gd1981-10-06s1t01.flac
522b9bf4cc7b63b1b869e4a109051f81 *gd1981-10-06s1t02.flac
d958d30abad08f710f0ffb496c73dda1 *gd1981-10-06s1t03.flac
35559cba1234719b4a0ae07cf56b37c9 *gd1981-10-06s1t04.flac
6a60aa00b9b1735175710ca3a82b57c1 *gd1981-10-06s1t05.flac
25c5a6655d034e80805b29bab8988b29 *gd1981-10-06s1t06.flac
c711e8b3c572df2b4a7fcbc1ddbdd827 *gd1981-10-06s1t07.flac
d326779884679a30e507916dccf727fc *gd1981-10-06s1t08.flac
0b5cf4e73f3eb6309e4371cd1c36cfc8 *gd1981-10-06s1t09.flac
cd4f3eb4da4e47a783e324b0f204e9e2 *gd1981-10-06s1t10.flac
0167dea92856ba9981abd0669ca49198 *gd1981-10-06s1t11.flac
29591ab3057441852c923b90ce568c12 *gd1981-10-06s1t12.flac
bfb7962c942f1f9909ce85094117fbec *gd1981-10-06s1t13.flac
712df2aafdae20a7de9083d3c8fcdb81 *gd1981-10-06s2t01.flac
7057e9a2cfee7ee4e10480623c2dc636 *gd1981-10-06s2t02.flac
fb95b8d88120d8aa0a893e00ffc6c0ff *gd1981-10-06s2t03.flac
a01ddb844247a40ee25fa383b858f427 *gd1981-10-06s2t04.flac
69099b7716a6820c64df009fcde4185b *gd1981-10-06s2t05.flac
4981583dadab93079bc9537db186de68 *gd1981-10-06s2t06.flac
9bfeb1adc67e09e647329cde4ed73a29 *gd1981-10-06s2t07.flac
f471a3afa7b7400970e32199a19be8ab *gd1981-10-06s2t08.flac
f23c81bcedaf325adcabacf81703c6f9 *gd1981-10-06s2t09.flac
7a1d11f282dfee551c54466deb11d4a4 *gd1981-10-06s2t10.flac
2684efb8fe5e244c8e42e77010807481 *gd1981-10-06s2t11.flac
5f751096a2c825d566ab4195e673ee59 *gd1981-10-06s2t12.flac
4aad4ebc80024ba297a89f2f9ff5e9a0 *gd1981-10-06s2t13.flac

Comments
Add Comment
Other Sources (comments)
Master Soundboard Cassette... (4) flac16; Recording... (1) flac24; AUD 2nd Set... (0) flac16; AUD 2nd Set... (1) flac16; Recording... (0) flac16; Audience... (0) flac24; Audience... (1) flac/176.4kHz;... (0)
Date User Comment