Browse Collections Artists Sources   Search Dates

Add Show    List Management    Help


Grateful Dead 03/29/83
Warfield Theater, San Francisco, CA
Comments Add Comment    Source Collectors    Add to Collection    Add to Want List    History
Source # 137269 Other Sources
Entered by Matt Vernon
Checksums flac-md5 , ffp
Disc Counts 0 / 0
Media Size Compressed: 896.05 MB (939573248 bytes)
Uncompressed: 1.45 GB (1555907680 bytes)
Date Circulated
Date Added
11/20/2016
11/20/2016
Source Summary flac16; Source: AUD from the Brian Schley tape collection (see note). Transfer: Maxell XLII 90's > Nakamichi CR-5A > Edirol FA-66 > Wavelab 2448 > R8Brain SRC > Wavelab (insert patches) > CD-Wave > TLH > FLAC 1644 tagged. Transferred by Andrew F. 11/2016 
  Archive
Source Information - Download Text | Download Zip
GRATEFUL DEAD
Warfield Theater
San Francisco CA
03-29-1983

s1t01 Jack Straw
s1t02 Birdsong
s1t03 Little Red Rooster
s1t04 Ramble on Rose
s1t05 It's All Over Now
s1t06 Candyman
s1t07 My Brother Esau
s1t08 Big Railroad Blues >
s1t09 Greatest Story Ever Told

s2t01 Help on the Way > Slipknot >
s2t02 Franklin's Tower >
s2t03 Estimated Prophet >
s2t04 Drums >
s2t05 /Space >
s2t06 The Wheel >
s2t07 Throwing Stones >
s2t08 Not Fade Away >
s2t09 Goin' Down the Road >
s2t10 Johnny B. Goode
s2t11 Encore: It's All Over Now Baby Blue

Source: AUD from the Brian Schley tape collection (see note).

Transfer: Maxell XLII 90's > Nakamichi CR-5A > Edirol FA-66 >
Wavelab 2448 > R8Brain SRC > Wavelab (insert patches) > CD-Wave >
TLH > FLAC 1644 tagged. Transferred by Andrew F. 11/2016

Note: The tapes were not marked, and it's not clear if this is a
master or 1st-Gen back-up. Recording appears to be from the front
of the balcony. Four 1st Set songs were missing, all patched from
ID-11262: complete tracks for Little Red Rooster, Ramble on Rose,
Candyman, and Brother Esau. Tape-flip cross-faded start of Space.
Thanks Jon Pasternak & Charlie McGuth for organizing this project!

    length     expanded size    cdr  WAVE problems  fmt   ratio  filename
     5:49.02       61568348 B   ---   --   ---xx   flac  0.6060  gd1983-03-29s1t01.flac
     8:37.21       91248236 B   ---   --   ---xx   flac  0.6075  gd1983-03-29s1t02.flac
     8:53.32       94096508 B   ---   --   ---xx   flac  0.6010  gd1983-03-29s1t03.flac
     7:09.34       75755612 B   ---   --   ---xx   flac  0.5922  gd1983-03-29s1t04.flac
     8:12.35       86871164 B   ---   --   ---xx   flac  0.6184  gd1983-03-29s1t05.flac
     6:37.47       70141388 B   ---   --   ---xx   flac  0.5884  gd1983-03-29s1t06.flac
     5:43.37       60592268 B   ---   --   ---xx   flac  0.5981  gd1983-03-29s1t07.flac
     4:29.35       47533964 B   ---   --   ---xx   flac  0.6373  gd1983-03-29s1t08.flac
     4:11.49       44391692 B   ---   --   ---xx   flac  0.6193  gd1983-03-29s1t09.flac
     7:50.50       83025644 B   ---   --   ---xx   flac  0.6107  gd1983-03-29s2t01.flac
    12:11.67      129106028 B   ---   --   ---xx   flac  0.6194  gd1983-03-29s2t02.flac
    13:15.12      140266268 B   ---   --   ---xx   flac  0.6087  gd1983-03-29s2t03.flac
     7:09.02       75680348 B   ---   --   ---xx   flac  0.5609  gd1983-03-29s2t04.flac
     9:41.09      102509612 B   ---   --   ---xx   flac  0.5633  gd1983-03-29s2t05.flac
     5:57.47       63085388 B   ---   --   ---xx   flac  0.6098  gd1983-03-29s2t06.flac
     8:35.43       90947180 B   ---   --   ---xx   flac  0.6045  gd1983-03-29s2t07.flac
     4:35.41       48606476 B   ---   --   ---xx   flac  0.6170  gd1983-03-29s2t08.flac
     6:19.08       66874460 B   ---   --   ---xx   flac  0.6171  gd1983-03-29s2t09.flac
     3:57.62       41952668 B   ---   --   ---xx   flac  0.6248  gd1983-03-29s2t10.flac
     7:42.67       81654428 B   ---   --   ---xx   flac  0.6024  gd1983-03-29s2t11.flac
   147:00.25     1555907680 B                            0.6038  (20 files)

No errors occured.



Show Checksums
flac-md5
9ef40f54f354cb82ad301d4eac431b31 *gd1983-03-29s1t01.flac
928694a8a60a0ed56e60e19f9026ccdc *gd1983-03-29s1t02.flac
8ad4a7e075174fb7541a13a3dc672301 *gd1983-03-29s1t03.flac
51f425939010e0e0045da2a0da3daf68 *gd1983-03-29s1t04.flac
04d646d4c1d8b352843e8770e7b64e7f *gd1983-03-29s1t05.flac
aeb6f28949f5806db672ae29a2546548 *gd1983-03-29s1t06.flac
161f6d01a2a0412caf16f93a336a6122 *gd1983-03-29s1t07.flac
45a5d834950c34f875ea0267be9036d8 *gd1983-03-29s1t08.flac
b199b6b480fd0c65c9f80d24b52ecf74 *gd1983-03-29s1t09.flac
294276f7730745e35e0dd201b449210a *gd1983-03-29s2t01.flac
c8c44b95b313630dc388e1394ed19f10 *gd1983-03-29s2t02.flac
acd85b0f98d7b3380e4ca225d8961eb5 *gd1983-03-29s2t03.flac
60a339689c115007fd032d3fda9f618d *gd1983-03-29s2t04.flac
82730402a748cc583d6ff67a069de167 *gd1983-03-29s2t05.flac
36c13e27e18bd341f3800a04dd58a300 *gd1983-03-29s2t06.flac
706cac694f55329a53ca38dbea3b85d7 *gd1983-03-29s2t07.flac
e1995b074dd5448acb71bb5aa9da108d *gd1983-03-29s2t08.flac
af1c5ac0b6c6cd52d5012cabc5ef5ef0 *gd1983-03-29s2t09.flac
170fd54c456e8d34b4c43b1ee98dce29 *gd1983-03-29s2t10.flac
6072977e3b1368265c0ba963236ad7f7 *gd1983-03-29s2t11.flac
ffp
gd1983-03-29s1t01.flac:fec44caa5ce206c14c93b33cd9035a1f
gd1983-03-29s1t02.flac:ae9d439090081ccb0da6bae5ffea7316
gd1983-03-29s1t03.flac:e8f9da8d24ab391a8f0b7ac30ab8e1c2
gd1983-03-29s1t04.flac:5af86e6450349e850e073e537928302f
gd1983-03-29s1t05.flac:c58542e67fe347fd677632a707611019
gd1983-03-29s1t06.flac:60578c7e28d84312b00154d8e078dd09
gd1983-03-29s1t07.flac:c47711722897854c1da436c26b3c4494
gd1983-03-29s1t08.flac:ae85e5f9c63be0fcb469624e05edd04b
gd1983-03-29s1t09.flac:8fe1063e230bddf2a25f6e4fe3234d86
gd1983-03-29s2t01.flac:0b40101d723726113ad3fff44f08c2ac
gd1983-03-29s2t02.flac:204f456e7737b83d7462d7335a91d2fd
gd1983-03-29s2t03.flac:73bb33c0a3b503d32c111a493f40e9ec
gd1983-03-29s2t04.flac:473b6fda21742a0cbdc7a57443563d81
gd1983-03-29s2t05.flac:52f583bef21041f32bb7e12fbd96f8fa
gd1983-03-29s2t06.flac:ee7436aeae2e40276d66c661a961a857
gd1983-03-29s2t07.flac:884115a0e347ed4588f1bde6592cc6d7
gd1983-03-29s2t08.flac:2e1dd20f9dad6a5310c344171c190590
gd1983-03-29s2t09.flac:adb53302b25c7f38b0893f9470109a4f
gd1983-03-29s2t10.flac:2e9428383a740d1075f290a94192d1bd
gd1983-03-29s2t11.flac:836cd971b6a76c49d8fce641dcdd9559

Comments
Add Comment
Other Sources (comments)
AUD>MC>CDR Paul Hogan, 1st... (0)
Date User Comment