Browse Collections Artists Sources   Search Dates

Add Show    List Management    Help


Grateful Dead 07/19/87
Autzen Stadium, University Of Oregon, Eugene, OR
Comments Add Comment    Source Collectors    Add to Collection    Add to Want List    History
Source # 137294 Other Sources
Entered by Matt Vernon
Checksums ffp , flac-md5
Disc Counts 0 / 0
Media Size Compressed: 469 MB (491782144 bytes)
Uncompressed: 903.26 MB (947132332 bytes)
Date Circulated
Date Added
11/26/2016
11/26/2016
Source Summary flac16; Set 3 Unknown Audience recording; Sony L-750ESX-HFB Dynamicron EXCELLENT SUPER HIFI VIDEO CASSETTE->Sony SLO-1800 STEREO VIDEOCASSETTE RECORDER-> Sony PCM-601ESD DIGITAL AUDIO PROCESSOR-> SP/DIF-> Mytek Stereo 192 Sample Rate Converter-> Upsampled to 44.1kHz/24bit->SP/DIF-> RME FIREFACE 800-> FireWire 400->Lenovo K450e Desktop PC-> WaveLab 6.11; Audition CC 2015 Mastering by Jason Chastain; Track, FLAC and Pack by Drew Frazer 
  Archive
Source Information - Download Text | Download Zip
Grateful Dead with Bob Dylan
Sunday July 19, 1987
Autzen Stadium, University of Oregon
Eugene, OR

Audience

Sony L-750ESX-HFB Dynamicron EXCELLENT SUPER HIFI VIDEO CASSETTE->
Sony SLO-1800 STEREO VIDEOCASSETTE RECORDER->
Sony PCM-601ESD DIGITAL AUDIO PROCESSOR-> SP/DIF->
Mytek Stereo 192 Sample Rate Converter-> Upsampled to 44.1kHz/24bit->SP/DIF->
RME FIREFACE 800-> FireWire 400->
Lenovo K450e Desktop PC-> WaveLab 6.11

This recording was gratefully supplied by PO and Stucco TINA Holmes.

Audition CC 2015 Mastering by Jason Chastain
Track, FLAC and Pack by Drew Frazer

16 bit 44.1kHz
a project **GEMS** Betamania Release 2016-11-25

--Set 3--
01 crowd and tuning
02 Maggie's Farm
03 Dead Man Dead Man
04 Watching The River Flow
05 Simple Twist of Fate
06 The Ballad of Frankie Lee & Judas Priest
07 Stuck Inside of Mobile With the Memphis Blues Again
08 Heart of Mine
09 It's All Over Now, Baby Blue
10 Rainy Day Women #12 & 35
11 Queen Jane Approximately
12 Ballad of a Thin Man
13 Highway 61 Revisited*
14 Tangled Up In Blue
--Encore w/Bob Dylan--
15 crowd and tuning
16 Touch of Grey
17 All Along The Watchtower

* Jerry Garcia on pedal steel

Notes: Tape flip between tracks 11 and 12 during "dead air".
This appears to be the same source as the audience patches used in shnid 97651, which notes:
Secondary source: Unknown lineage (low gen.) audience recording from PCM Beta tape copy.

Originally shared at www.shnflac.net


length     expanded size    cdr  WAVE problems  fmt   ratio  filename
0:22.05        3892604 B   ---   --   ---xx   flac  0.5219  gd1987-07-19t101.flac
4:10.32       44175308 B   ---   --   ---xx   flac  0.5470  gd1987-07-19t102.flac
5:25.07       57346508 B   ---   --   ---xx   flac  0.5412  gd1987-07-19t103.flac
4:53.13       51715820 B   ---   --   ---xx   flac  0.5387  gd1987-07-19t104.flac
5:18.47       56205788 B   ---   --   ---xx   flac  0.4619  gd1987-07-19t105.flac
5:49.19       61608332 B   ---   --   ---xx   flac  0.5083  gd1987-07-19t106.flac
6:45.17       71482028 B   ---   --   ---xx   flac  0.5310  gd1987-07-19t107.flac
4:50.12       51184268 B   ---   --   ---xx   flac  0.5061  gd1987-07-19t108.flac
5:20.72       56617388 B   ---   --   ---xx   flac  0.5170  gd1987-07-19t109.flac
5:09.20       54554684 B   ---   --   ---xx   flac  0.5344  gd1987-07-19t110.flac
6:45.16       71479676 B   ---   --   ---xx   flac  0.5054  gd1987-07-19t111.flac
5:49.28       61629500 B   ---   --   ---xx   flac  0.5123  gd1987-07-19t112.flac
5:50.07       61756508 B   ---   --   ---xx   flac  0.5144  gd1987-07-19t113.flac
7:38.44       80894732 B   ---   --   ---xx   flac  0.5373  gd1987-07-19t114.flac
3:37.15       38314124 B   ---   --   ---xx   flac  0.4447  gd1987-07-19t115.flac
6:33.66       69480476 B   ---   --   ---xx   flac  0.5339  gd1987-07-19t116.flac
5:10.47       54794588 B   ---   --   ---xx   flac  0.5509  gd1987-07-19t117.flac
89:29.17      947132332 B                            0.5194  (17 files)






Show Checksums
ffp
gd1987-07-19t101.flac:b674977f7b889d9ba5bc5220157f3eab
gd1987-07-19t102.flac:7e416562993e3fa05cfa32bb69e16ec8
gd1987-07-19t103.flac:74fe4d5f4c95c97f64b57fb3873f8bad
gd1987-07-19t104.flac:07fe9180bcfb3e2803c1debbb77ab4c2
gd1987-07-19t105.flac:c754b5c4c8e1acef691ea67bee79872c
gd1987-07-19t106.flac:12ec580e6f1f1796b8f1c5e366d0e315
gd1987-07-19t107.flac:c71f904256b3fe80668bcc7063ea02a3
gd1987-07-19t108.flac:acf6f2efd42c5a51c49cf762dc861973
gd1987-07-19t109.flac:3977d0c06a8375f43e79ee9a7e6bed3e
gd1987-07-19t110.flac:b1e307e2a5f193d2db6bef64ecdeeefa
gd1987-07-19t111.flac:31394494b0aeab6577e392b3f8b02f27
gd1987-07-19t112.flac:0a99075c6f1af82aa536d0a45e29b9d7
gd1987-07-19t113.flac:8f51ae591d10f23baf4e7d7492ad3524
gd1987-07-19t114.flac:4910b11eaa9774576d2f6105cccae932
gd1987-07-19t115.flac:566f2efacd149a5497f8cb6445963752
gd1987-07-19t116.flac:b2e997f57a5bee0bc68105fc9a9e8a91
gd1987-07-19t117.flac:9423438a719a1d62f47ceade476d37a6
flac-md5
19a7dd96348cfcc7a6530b4a1d06850f *gd1987-07-19t101.flac
f870d74960d1d6481813ec451defe2b4 *gd1987-07-19t102.flac
936ff03b8de05860e205933532e0452f *gd1987-07-19t103.flac
ba2d24c21ae9555b78d7e6e036be0860 *gd1987-07-19t104.flac
d71ad80fec5bb4b5eb0f3dc319a63790 *gd1987-07-19t105.flac
047099d85c96c8e2fed0bcf30ad259ae *gd1987-07-19t106.flac
6057597a10b080b4991a53ba74e0395f *gd1987-07-19t107.flac
358ba45d3ce6672668e1e2231ea0396d *gd1987-07-19t108.flac
add456e54e71ee3f29eb851ec92ee1d0 *gd1987-07-19t109.flac
d62dbba8fa634b0240d1f61afc1c9667 *gd1987-07-19t110.flac
f9ac18bdc8b5eb2b766a19dd04c62080 *gd1987-07-19t111.flac
f23dc7cb1ef48d49bf47f4214825c2fc *gd1987-07-19t112.flac
6a155d602f5b2f2ae68ab3c9615f54ca *gd1987-07-19t113.flac
7bb8fa4fc2672f4c5496b1616232624b *gd1987-07-19t114.flac
07c3ba162a15995f0c7cac04be7f3d2f *gd1987-07-19t115.flac
6811e04bd13e60a23c34d2022ee3d28e *gd1987-07-19t116.flac
c4c97f94ee6c3c17fba8cb586f51f79b *gd1987-07-19t117.flac

Comments
Add Comment
Other Sources (comments)
Source: Matrix... (0) AUD Source (Discs 1 & 2):... (0) Soundboard > ? > SHN (0) Primary source: Soundboard... (0) flac16; Healy matrix... (0) flac16/48kHz; Set 3... (0)
Date User Comment