Browse Collections Artists Sources   Search Dates

Add Show    List Management    Help


Grateful Dead 11/06/79
The Spectrum, Philadelphia, PA
Comments Add Comment    Source Collectors    Add to Collection    Add to Want List    History
Source # 137296 Other Sources
Entered by Matt Vernon
Checksums flac-md5 , ffp
Disc Counts 0 / 0
Media Size Compressed: 849.16 MB (890413056 bytes)
Uncompressed: 1.56 GB (1672308336 bytes)
Date Circulated
Date Added
11/28/2016
11/28/2016
Source Summary flac16; Soundboard; Sony L-750ESX-HFB Dynamicron EXCELLENT SUPER HIFI VIDEO CASSETTE-> Sony SLO-1800 STEREO VIDEOCASSETTE RECORDER-> Sony PCM-601ESD DIGITAL AUDIO PROCESSOR-> SP/DIF-> Mytek Stereo 192 Sample Rate Converter-> Upsampled to 44.1kHz/24bit->SP/DIF-> RME FIREFACE 800-> FireWire 400-> Lenovo K450e Desktop PC-> WaveLab 6.11; Mastering & Editing by Jason Chastain in Audition CC 2015; Final Mastering by Jamie Waddell in Wavelab 7.1; Track, FLAC and Pack by Norm 
  Archive
Source Information - Download Text | Download Zip
Grateful Dead
Tuesday, November 06, 1979
The Spectrum
Philadelphia, PA

Soundboard

Sony L-750ESX-HFB Dynamicron EXCELLENT SUPER HIFI VIDEO CASSETTE->
Sony SLO-1800 STEREO VIDEOCASSETTE RECORDER->
Sony PCM-601ESD DIGITAL AUDIO PROCESSOR-> SP/DIF->
Mytek Stereo 192 Sample Rate Converter-> Upsampled to 44.1kHz/24bit->SP/DIF->
RME FIREFACE 800-> FireWire 400->
Lenovo K450e Desktop PC-> WaveLab 6.11

This recording was gratefully supplied by PO and Stucco TINA Holmes.

Mastering & Editing by Jason Chastain in Audition CC 2015
Final Mastering  by Jamie Waddell in Wavelab 7.1
Track, FLAC and Pack by Norm

16 bit 44.1kHz
a project **GEMS** Betamania Release 2016-11-28

--Set 1--
01 Alabama Getaway >
02 Promised Land
03 tuning
04 Tennessee Jed
05 tuning
06 Me And My Uncle >
07 Mexicali Blues
08 tuning
09 Candyman
10 Easy To Love You
11 tuning
12 Looks Like Rain
13 tuning
14 Jack-A-Roe
15 tuning
16 Jack Straw >
17 Deal

--Set 2--
18 Terrapin >
19 Playing In The Band >
20 Drums >
21 Space >
22 Black Peter >
23 Good Lovin'

Encore
24 U.S. Blues

JC notes:
- channels were switched.
- pitch is correct on beta version. All other circulating copies are pitched too slow (especially bad is the Road Trips version).
- pre-Terrapin was weird. Earlier shnids did some creative editing. Beta is closer to how the tuning went, but there is still a little bit missing.
  I couldn't locate a source with the tuning intact.

PATCHES (all with shnid 29735, unless otherwise noted)
(times are for untracked file)
0:00:11.27 - 0:00:36.43 (Alabama Getaway)
0:29:47.60 - 0:29:47.85 (Me and My Uncle)
0:44.31.41 - 0:44:46.99 (tuning after Candyman)
0:48:04.67 - 0:48:05.00 (Easy To Love You)
1:22:10.68 - 1:22:16.06 (tuning before Terrapin)
1:22:18.37 - 1:22:21.59 (tuning before Terrapin)
2:09:14.70 - 2:10:10.02 (post Space jam) - AUD 85575
2:21:46.80 - 2:21:47.78 (Black Peter)
2:31:46.28 - 2:31:58.32 (encore break) - AUD 85575

pitch on 29735 adjusted to 98.36% (.29 semitones) for patching

originally shared at www.shnflac.net

    length     expanded size    cdr  WAVE problems  fmt   ratio  filename
     6:44.52       71387948 B   ---   --   ---xx   flac  0.5827  gd1979-11-06s1t01.flac
     4:07.44       43674332 B   ---   --   ---xx   flac  0.6063  gd1979-11-06s1t02.flac
     4:33.65       48310124 B   ---   --   ---xx   flac  0.4381  gd1979-11-06s1t03.flac
     9:03.61       95928716 B   ---   --   ---xx   flac  0.5488  gd1979-11-06s1t04.flac
     2:18.38       24432620 B   ---   --   ---xx   flac  0.4607  gd1979-11-06s1t05.flac
     3:12.07       33885308 B   ---   --   ---xx   flac  0.5577  gd1979-11-06s1t06.flac
     4:21.29       46108652 B   ---   --   ---xx   flac  0.5589  gd1979-11-06s1t07.flac
     2:47.48       29571740 B   ---   --   ---xx   flac  0.4550  gd1979-11-06s1t08.flac
     7:50.08       82926860 B   ---   --   ---xx   flac  0.5337  gd1979-11-06s1t09.flac
     3:50.15       40607324 B   ---   --   ---xx   flac  0.5453  gd1979-11-06s1t10.flac
     1:24.53       14942300 B   ---   --   ---xx   flac  0.4244  gd1979-11-06s1t11.flac
     8:07.07       85923308 B   ---   --   ---xx   flac  0.5025  gd1979-11-06s1t12.flac
     1:57.21       20688236 B   ---   --   ---xx   flac  0.4263  gd1979-11-06s1t13.flac
     6:59.14       73944572 B   ---   --   ---xx   flac  0.5165  gd1979-11-06s1t14.flac
     1:30.07       15892508 B   ---   --   ---xx   flac  0.4239  gd1979-11-06s1t15.flac
     6:41.07       70752908 B   ---   --   ---xx   flac  0.5551  gd1979-11-06s1t16.flac
     6:41.00       70736444 B   ---   --   ---xx   flac  0.5612  gd1979-11-06s1t17.flac
    15:26.40      163440524 B   ---   --   ---xx   flac  0.5322  gd1979-11-06s2t01.flac
    21:39.62      229289468 B   ---   --   ---xx   flac  0.5516  gd1979-11-06s2t02.flac
     8:35.31       90918956 B   ---   --   ---xx   flac  0.5073  gd1979-11-06s2t03.flac
     5:19.04       56281052 B   ---   --   ---xx   flac  0.4808  gd1979-11-06s2t04.flac
    11:24.37      120744668 B   ---   --   ---xx   flac  0.5197  gd1979-11-06s2t05.flac
     7:45.24       82082492 B   ---   --   ---xx   flac  0.5717  gd1979-11-06s2t06.flac
     5:39.16       59837276 B   ---   --   ---xx   flac  0.5704  gd1979-11-06s2t07.flac
   158:00.15     1672308336 B                            0.5324  (24 files)


Show Checksums
flac-md5
c2471e5e5b8a8ad97cbffff3aaa4b9c2 *gd1979-11-06s1t01.flac
568a755e77efb9bcc0457950455616b9 *gd1979-11-06s1t02.flac
e82cf9d64190ea0ee543e7417b7a6eb7 *gd1979-11-06s1t03.flac
61aadee1f0a2ac4d8bdd0f200f8b6d3b *gd1979-11-06s1t04.flac
f2d7d374069ace1de4ef7d1fb4ee529f *gd1979-11-06s1t05.flac
5a16a21a0bd7bcfde04c4bb6e7ac2a45 *gd1979-11-06s1t06.flac
3c02237a1cf3ab65fab28a062b48c3fc *gd1979-11-06s1t07.flac
b31ad3bb6843a4cd6260786e3acff64c *gd1979-11-06s1t08.flac
8140d766e446d77b7c5e248a0e0857e8 *gd1979-11-06s1t09.flac
ebd97692f3d410b92a0176ded82baf94 *gd1979-11-06s1t10.flac
df47194720737fd7a5ec03fd23672c78 *gd1979-11-06s1t11.flac
d2e4e1caf85385d60d5039720d72145a *gd1979-11-06s1t12.flac
7c3a255cdc2a15e9c635ae9bdefc9648 *gd1979-11-06s1t13.flac
0f47f480501d78223bb614bfadbfd2d9 *gd1979-11-06s1t14.flac
3f9780e1e23bb239374bdf0023f9e5ee *gd1979-11-06s1t15.flac
e9324bdd65507bd1e4517a3d95c266da *gd1979-11-06s1t16.flac
2b85ef7eecdd495ec15a46a3fbedbcb3 *gd1979-11-06s1t17.flac
7f068a82346fa5cde3d5ce6ba5631230 *gd1979-11-06s2t01.flac
9b90a8f226ad0e44cf4ee22f9f4c2e6b *gd1979-11-06s2t02.flac
a8284e536fb3a634aedd6e8582d0a774 *gd1979-11-06s2t03.flac
0b0d8d13e293e70a44db153e20782557 *gd1979-11-06s2t04.flac
666c8611c06fe2619f684b994a2b5218 *gd1979-11-06s2t05.flac
c7a4920e1958f15281795bb0d35d6fdd *gd1979-11-06s2t06.flac
4697cb71f0220d70ba64c75bace6a49f *gd1979-11-06s2t07.flac
ffp
gd1979-11-06s1t01.flac:f2457c5509b969212ca3824c7cca83de
gd1979-11-06s1t02.flac:a88dcc215113d0125b03433c2983e13a
gd1979-11-06s1t03.flac:f41a55bf029558c69b8f7a7d92580f27
gd1979-11-06s1t04.flac:766d84248a13818ec3d9f53e517c3400
gd1979-11-06s1t05.flac:2d0f3b474760c42b5990f5f65f4fe1a6
gd1979-11-06s1t06.flac:1d0466152c6de15ecbbd0d5d9cda0b6d
gd1979-11-06s1t07.flac:673a9615d7a78b2ce3120812ce50665f
gd1979-11-06s1t08.flac:2846fed148b05c52a935eb00c6e929c1
gd1979-11-06s1t09.flac:e3eea00e41a48c4cd17ae87494777e4e
gd1979-11-06s1t10.flac:c560751d0d774eb104609c8fc934e577
gd1979-11-06s1t11.flac:d843300b78e53244e53d4b4871a6b780
gd1979-11-06s1t12.flac:32bdacd990f09993cb6fc51c6c212dc5
gd1979-11-06s1t13.flac:d4a06aaa1eeb22a1d33874fdbfd29946
gd1979-11-06s1t14.flac:e7b8af268766fc02864174ee3c390cd2
gd1979-11-06s1t15.flac:5bc4566f271a22516ea9fcaf19382a20
gd1979-11-06s1t16.flac:373ded943b75a0de1678422163c94d48
gd1979-11-06s1t17.flac:e6f6e90e9af9b54fd244da6b1b63012c
gd1979-11-06s2t01.flac:0e94d7dc0712314a12de8cce05e3e113
gd1979-11-06s2t02.flac:f30e067b3d89d594cdc22d4812056ed2
gd1979-11-06s2t03.flac:b3581ae8d784654e22e697bde5529ff0
gd1979-11-06s2t04.flac:7a6288fdc5a25a0d39675b903d7a162c
gd1979-11-06s2t05.flac:84fead66b2782fa8727ec22963a6514e
gd1979-11-06s2t06.flac:a023489eedcf7acbe56636e64a31c5b8
gd1979-11-06s2t07.flac:547bf77e1a6af0772bd20c7bb30633a1

Comments
Add Comment
Other Sources (comments)
Master Soundboard Cassette... (1) flac16; SBD ->... (5) flac 16; set 2 only;... (0) flac24; Source: SBD... (0) flac16; Source: SBD... (0)
Date User Comment