Browse Collections Artists Sources   Search Dates

Add Show    List Management    Help


Grateful Dead 10/09/83
Greensboro Coliseum, Greensboro, NC
Comments Add Comment    Source Collectors    Add to Collection    Add to Want List    History
Source # 137300 Other Sources
Entered by Matt Vernon
Checksums ffp , flac-md5
Disc Counts 0 / 0
Media Size Compressed: 3.61 GB (3874158787 bytes)
Uncompressed: 4.91 GB (5269076272 bytes)
Date Circulated
Date Added
11/30/2016
11/30/2016
Source Summary flac24; Recording Info: (FOB) Sennheiser 421 > Sony TC-D5M > Cassette Master (Sony WM-D6 Patched); Transfer Info: Cassette Master (Nakamichi DR-1) > Tascam DA-3000 (DSF 1-bit/5.8 MHz) > KORG AudioGate 4 > Adobe Audition CC 2015 > Samplitude Pro X3 Suite > FLAC/24; All Transfers and Mastering By Charlie Miller 
  Archive
Source Information - Download Text | Download Zip
Grateful Dead - October 9, 1983
Greensboro Coliseum - Greensboro, NC

Recording Info:
(FOB) Sennheiser 421 > Sony TC-D5M > Cassette Master (Sony WM-D6 Patched)

Transfer Info:
Cassette Master (Nakamichi DR-1) > Tascam DA-3000 (DSF 1-bit/5.8 MHz) >
KORG AudioGate 4 > Adobe Audition CC 2015 > Samplitude Pro X3 Suite > FLAC/24
(1 Disc FLAC)

All Transfers and Mastering By Charlie Miller
[email protected]
November 25, 2016

Notes:
-- Thanks to Joe B. Jones for his help with the pitch correction

Set 1:
01 - Shakedown Street
02 - Samson And Delilah
03 - Peggy-O
04 - Little Red Rooster
05 - Candyman
06 - My Brother Esau
07 - Big Railroad Blues
08 - Let It Grow

Set 2:
09 - Touch Of Grey
10 - Estimated Prophet >
11 - Eyes Of The World >
12 - Man Smart (Woman Smarter) >
13 - Drums >
14 - Space >
15 - Not Fade Away >
16 - Sugar Magnolia

Encore:
17 - It's All Over Now, Baby Blue


SHNTOOL OUTPUT:
    length     expanded size    cdr  WAVE problems  fmt   ratio  filename
    12:11.749     421487228 B   cxx   --   ---xx   flac  0.7331  01 Shakedown Street.flac
     7:50.023     270733046 B   cxx   --   ---xx   flac  0.7551  02 Samson And Delilah.flac
     6:51.653     237112010 B   cxx   --   ---xx   flac  0.7560  03 Peggy-O.flac
     9:03.032     312786596 B   cxx   --   ---xx   flac  0.7726  04 Little Red Rooster.flac
     6:34.910     227468450 B   cxx   --   ---xx   flac  0.7578  05 Candyman.flac
     5:11.427     179382008 B   cxx   --   ---xx   flac  0.7644  06 My Brother Esau.flac
     8:00.414     276718460 B   cxx   --   ---xx   flac  0.7678  07 Big Railroad Blues.flac
    15:00.194     518511890 B   cxx   --   ---xx   flac  0.7698  08 Let It Grow.flac
     7:52.432     272121110 B   cxx   --   ---xx   flac  0.7043  09 Touch Of Grey.flac
    12:15.350     423561734 B   cxx   --   ---xx   flac  0.7080  10 Estimated Prophet.flac
     7:34.202     261620456 B   cxx   --   ---xx   flac  0.7255  11 Eyes Of The World.flac
     7:39.647     264756776 B   cxx   --   ---xx   flac  0.7380  12 Man Smart (Woman Smarter).flac
     7:58.140     275408876 B   cxx   --   ---xx   flac  0.7029  13 Drums.flac
    10:39.254     368210618 B   cxx   --   ---xx   flac  0.6705  14 Space.flac
     9:50.534     340147856 B   cxx   --   ---xx   flac  0.7179  15 Not Fade Away.flac
    10:17.123     355462772 B   cxx   --   ---xx   flac  0.7307  16 Sugar Magnolia.flac
     7:37.615     263586386 B   cxx   --   ---xx   flac  0.7497  17 It's All Over Now, Baby Blue.flac
   152:27.701    5269076272 B                            0.7353  (17 files)


Show Checksums
ffp
01 Shakedown Street.flac:fe13e07f510671a95e4736ad8cae6c2c
02 Samson And Delilah.flac:0bec761dacecfa44e2acc369a22c50b6
03 Peggy-O.flac:0da55ca378d20c1f798a37591c917139
04 Little Red Rooster.flac:d4235cf72aaa0c706dd7c91035c4389c
05 Candyman.flac:a7efe12ecfed2d2908db70ebcf84a498
06 My Brother Esau.flac:9954517eacd4c41ba32daeeaa2046323
07 Big Railroad Blues.flac:5f52d953892d786251e825b15aa5411a
08 Let It Grow.flac:4a9f58c0908ff031bdc4275d5220dfef
09 Touch Of Grey.flac:6afd9bcd8dfdc23acdbc0ce949f2fd22
10 Estimated Prophet.flac:03612215f83322a217f333aa99fff0c0
11 Eyes Of The World.flac:75cc94fb8b73f5743520722a15259ccc
12 Man Smart (Woman Smarter).flac:c467a9b71ed50628f10a4a1a6fedc4bd
13 Drums.flac:22a74de7d22adf0f9cfe9417b9206d21
14 Space.flac:2425ef34db5048b63d598d5f1e5edc55
15 Not Fade Away.flac:82a36867d7a91cae562073cd3d1962da
16 Sugar Magnolia.flac:0ae7db33479029f6adcfc23eb1285b1c
17 It's All Over Now, Baby Blue.flac:fe3d2ac64cc973ea4fa23f7eac6cbf10
flac-md5
100b33a3d3df00e5aa6fc77e83b83c26 *01 Shakedown Street.flac
4d0dd46078982d3ef910986238856dc5 *02 Samson And Delilah.flac
ce6ce5effc25797c3d4c3371407cd294 *03 Peggy-O.flac
9f3db14c6687b1ca4b15256473a66fe6 *04 Little Red Rooster.flac
e3c48ffd8c2b7ba76bace08f256a58ba *05 Candyman.flac
33f2c4c00b6fb0e824f808f056b8b4a0 *06 My Brother Esau.flac
afa3dac9618994f6ef3cb194ad03ffbf *07 Big Railroad Blues.flac
630b9dd3cf58b44fe40c6a6f2aa5e627 *08 Let It Grow.flac
8e8510845b2d37d49b237866d2139c18 *09 Touch Of Grey.flac
9d0ba6a2fc94035634f1fb5ac3b90797 *10 Estimated Prophet.flac
8d9402957fe3367441d0c3b7cabc4548 *11 Eyes Of The World.flac
ce6732047fe32239b9c3c43c98a0c57a *12 Man Smart (Woman Smarter).flac
910fe9bb33d52cc37ff17dfad4cab103 *13 Drums.flac
215609a46bd0cbcf1984bf364669837a *14 Space.flac
9dceef6766164544329a1411a7679384 *15 Not Fade Away.flac
79d2003cca09bd139880c6b49e42234c *16 Sugar Magnolia.flac
e394296b20bd2cc39967b991d654185b *17 It's All Over Now, Baby Blue.flac

Comments
Add Comment
Other Sources (comments)
3 Audio Technica ATM 11s >... (2) flac16; Set 2 Only -... (0) flac16; Lineage:... (1) flac16; Source: 2... (0) flac24; Updated... (1) flac16; Master... (0) flac24; Master... (0) flac16; Recording... (0) Source: (FOB) Beyer M-88's... (0)
Date User Comment