Browse Collections Artists Sources   Search Dates

Add Show    List Management    Help


Grateful Dead 10/12/83
Madison Square Garden, New York, NY
Comments Add Comment    Source Collectors    Add to Collection    Add to Want List    History
Source # 137302 Other Sources
Entered by Gary Field
Checksums ffp , flac-md5
Disc Counts 0 / 0
Media Size Compressed: 3.81 GB (4088923035 bytes)
Uncompressed: 5.32 GB (5715125014 bytes)
Date Circulated
Date Added
11/30/2016
11/30/2016
Source Summary flac24; Updated Recording Info: (FOB) Nakamichi 700's > Sony TC-D5M > Cassette Master (Sony WM-D6 Patched); Transfer Info: Cassette Master (Nakamichi DR-1) > Tascam DA-3000 (DSF 1-bit/5.8 MHz) > KORG AudioGate 4 > Adobe Audition CC 2015 > Samplitude Pro X3 Suite > FLAC/24; All Transfers and Mastering By Charlie Miller 
  Archive
Source Information - Download Text | Download Zip
Grateful Dead - October 12, 1983
Madison Square Garden - New York, NY

Updated Recording Info:
(FOB) Nakamichi 700's > Sony TC-D5M > Cassette Master (Sony WM-D6 Patched)
(Had been marked Sennheiser 421)

Transfer Info:
Cassette Master (Nakamichi DR-1) > Tascam DA-3000 (DSF 1-bit/5.8 MHz) >
KORG AudioGate 4 > Adobe Audition CC 2015 > Samplitude Pro X3 Suite > FLAC/24
(1 Disc FLAC)

All Transfers and Mastering By Charlie Miller
[email protected]
November 25, 2016

Notes:
-- Thanks to Joe B. Jones for his help with the pitch correction

Set 1:
01 - Cold Rain And Snow
02 - New Minglewood Blues
03 - Ramble On Rose
04 - My Brother Esau
05 - It Must Have Been The Roses
06 - Cassidy >
07 - Cumberland Blues
08 - Looks Like Rain >
09 - Might As Well

Set 2:
10 - Help On The Way >
11 - Slipknot! >
12 - Franklin's Tower
13 - Man Smart (Woman Smarter)
14 - He's Gone >
15 - Drums >
16 - Space >
17 - Truckin' >
18 - Black Peter >
19 - Not Fade Away

Encore:
20 - Revolution


SHNTOOL OUTPUT:
    length     expanded size    cdr  WAVE problems  fmt   ratio  filename
     7:59.531     276209672 B   cxx   --   ---xx   flac  0.7148  01 Cold Rain And Snow.flac
     9:18.972     321967892 B   cxx   --   ---xx   flac  0.7149  02 New Minglewood Blues.flac
     6:56.360     239823326 B   cxx   --   ---xx   flac  0.7084  03 Ramble On Rose.flac
     5:18.700     183571508 B   cxx   --   ---xx   flac  0.7131  04 My Brother Esau.flac
     6:18.125     217799846 B   cxx   --   ---xx   flac  0.7111  05 It Must Have Been The Roses.flac
     6:09.348     212744336 B   cxx   --   ---xx   flac  0.7197  06 Cassidy.flac
     9:34.172     330723158 B   cxx   --   ---xx   flac  0.7352  07 Cumberland Blues.flac
     8:23.667     290112458 B   cxx   --   ---xx   flac  0.7176  08 Looks Like Rain.flac
     4:37.243     159692144 B   cxx   --   ---xx   flac  0.7394  09 Might As Well.flac
     3:48.824     131802554 B   cxx   --   ---xx   flac  0.7073  10 Help On The Way.flac
    10:01.259     346325054 B   cxx   --   ---xx   flac  0.7093  11 Slipknot!.flac
    14:15.900     492998450 B   cxx   --   ---xx   flac  0.7139  12 Franklin's Tower.flac
     6:44.811     233170940 B   cxx   --   ---xx   flac  0.7117  13 Man Smart (Woman Smarter).flac
    12:52.033     444691328 B   cxx   --   ---xx   flac  0.7229  14 He's Gone.flac
     9:04.646     313716026 B   cxx   --   ---xx   flac  0.7082  15 Drums.flac
    13:08.595     454230854 B   cxx   --   ---xx   flac  0.6697  16 Space.flac
     7:48.386     269790272 B   cxx   --   ---xx   flac  0.7354  17 Truckin'.flac
     9:10.882     317308238 B   cxx   --   ---xx   flac  0.7299  18 Black Peter.flac
     8:31.027     294351476 B   cxx   --   ---xx   flac  0.7356  19 Not Fade Away.flac
     5:19.610     184095482 B   cxx   --   ---xx   flac  0.7166  20 Revolution.flac
   165:22.091    5715125014 B                            0.7155  (20 files)



Show Checksums
ffp
01 Cold Rain And Snow.flac:508f055934532462d99be8e27cd304ca
02 New Minglewood Blues.flac:beab2a8c6203e5c31dbafc4043b3db6e
03 Ramble On Rose.flac:635296ad730f1055bd941ba79b207dde
04 My Brother Esau.flac:d331be62c2cda9b9b693df276d0b2e5a
05 It Must Have Been The Roses.flac:b3db968ee450e931de31d1953f95aa7d
06 Cassidy.flac:3aee957f512e24d6d50c109b6114c0f1
07 Cumberland Blues.flac:40df1dc221af6958c5a364bda4975b19
08 Looks Like Rain.flac:a707771363c212853cb63a2e7e045dbd
09 Might As Well.flac:ca759971a1043b297fb5f20be7babb87
10 Help On The Way.flac:5d389c3a93259410d6437e149e0485a8
11 Slipknot!.flac:4270caac6af45ee9a5039a40135cb6f3
12 Franklin's Tower.flac:ad0e1bc216c797afd30c4013d15c2f10
13 Man Smart (Woman Smarter).flac:f910f2fa3bef695adae34a3c41933efd
14 He's Gone.flac:9065b1412b0e21418f8c4ca9c5e86f89
15 Drums.flac:11c3399648f02170435be3d4f715d998
16 Space.flac:d99df074ae82f34fde6646f4d754a598
17 Truckin'.flac:31cdb0869641cf6da3478d64ac924f61
18 Black Peter.flac:d03e2a862040fb8b1f4e5deb6c1bdd17
19 Not Fade Away.flac:c715219efa794b5e2efcf2d46413cce1
20 Revolution.flac:89c0c653335084784a462065f367b105
flac-md5
f9ca0870fc923e4c5e0f9b3ebdca9733 *01 Cold Rain And Snow.flac
26ab15561c9385076ed9330aa2a70d15 *02 New Minglewood Blues.flac
1b4cc7420e4db7648a0577db333dce05 *03 Ramble On Rose.flac
9c30434bac78fe517e3cefb37d1ea0e5 *04 My Brother Esau.flac
8f8ac3e740bf1a7f358e22ad30536b9a *05 It Must Have Been The Roses.flac
16c7c2388633b731131274c3464c75a5 *06 Cassidy.flac
6b054e61998e6e998f34b0396a0b00eb *07 Cumberland Blues.flac
fe5b8ed42e142ba79db78ed15d50acb7 *08 Looks Like Rain.flac
5e510e7ced5353cf9c6f52dc820ada4e *09 Might As Well.flac
e28ff1057f58727ce28febf710f1807f *10 Help On The Way.flac
ff6f9b285e947e177734faa5b6af34d7 *11 Slipknot!.flac
a7d047f61349f7fe53790687665f54c6 *12 Franklin's Tower.flac
550c130d973fba5f5731e0036643c524 *13 Man Smart (Woman Smarter).flac
a468534ea0aef46b7a51921c798f8b8d *14 He's Gone.flac
a3b81e28d137fbe535589880f5977d99 *15 Drums.flac
8690f1b616980724b258c92c50cafb55 *16 Space.flac
32b16f50370ccb681768443846978b26 *17 Truckin'.flac
c454544b582c2d13d8b4a5536d4da369 *18 Black Peter.flac
9ff898ab1dc4cde11c986f389c86b535 *19 Not Fade Away.flac
175abb2d0ee1cfe7d9aa45c0c5cc86eb *20 Revolution.flac

Comments
Add Comment
Other Sources (comments)
unknown aud (could be FOB... (2) SBD > Cassette Master > Dat... (0) flac16; Source: FOB... (0) flac16; Sennheiser... (0) flac16; Recording... (0) flac16; SBD and... (0) 2 Beyer M160>Sony TCD5M... (0) flac16; Lineage:... (0) flac16; Source: 2... (0) flac24; Updated... (0) flac16; 2 Source... (0) flac24; Master... (0) flac16; Master... (0) flac16; Updated... (2) flac24; Partial Show... (0) flac16; Partial Show... (0)
Date User Comment
12/14/2016 charliemiller The mics were actually Nakamichi 700's for the MSG shows.
12/17/2016 Wharfrat73 Updated info file.