Browse Collections Artists Sources   Search Dates

Add Show    List Management    Help


Grateful Dead 10/14/83
Hartford Civic Center, Hartford, CT
Comments Add Comment    Source Collectors    Add to Collection    Add to Want List    History
Source # 137303 Other Sources
Entered by Matt Vernon
Checksums ffp , flac-md5
Disc Counts 0 / 0
Media Size Compressed: 1.98 GB (2124933914 bytes)
Uncompressed: 2.88 GB (3092512078 bytes)
Date Circulated
Date Added
11/30/2016
11/30/2016
Source Summary flac24; Partial Set 2 Recording Info: (FOB) Sennheiser 421 > Sony TC-D5M > Cassette Master (Sony WM-D6 Patched); Transfer Info: Cassette Master (Nakamichi DR-1) > Tascam DA-3000 (DSF 1-bit/5.8 MHz) > KORG AudioGate 4 > Adobe Audition CC 2015 > Samplitude Pro X3 Suite > FLAC/24; All Transfers and Mastering By Charlie Miller 
  Archive
Source Information - Download Text | Download Zip
Grateful Dead - October 14, 1983
Civic Center - Hartford, CT

Recording Info:
(FOB) Sennheiser 421 > Sony TC-D5M > Cassette Master (Sony WM-D6 Patched)

Transfer Info:
Cassette Master (Nakamichi DR-1) > Tascam DA-3000 (DSF 1-bit/5.8 MHz) >
KORG AudioGate 4 > Adobe Audition CC 2015 > Samplitude Pro X3 Suite > FLAC/24
(1 Disc FLAC)

All Transfers and Mastering By Charlie Miller
[email protected]
November 26, 2016

Notes:
-- Sound quality changes at the tape flip
-- This was all that was available, I chose not to patch it
-- Thanks to Joe B. Jones for his help with the pitch correction

Set 2:
01 - Scarlet Begonias >
02 - Fire On The Mountain
03 - Estimated Prophet >
04 - Eyes Of The World >
05 - Drums >
06 - Space >
07 - Spanish Jam >
08 - The Other One


SHNTOOL OUTPUT:
    length     expanded size    cdr  WAVE problems  fmt   ratio  filename
    15:15.068     527079020 B   cxx   --   ---xx   flac  0.6725  01 Scarlet Begonias.flac
    17:19.993     599036156 B   cxx   --   ---xx   flac  0.6746  02 Fire On The Mountain.flac
    13:14.706     457750676 B   cxx   --   ---xx   flac  0.6780  03 Estimated Prophet.flac
    17:55.654     619576502 B   cxx   --   ---xx   flac  0.7086  04 Eyes Of The World.flac
     6:08.183     212073704 B   cxx   --   ---xx   flac  0.6987  05 Drums.flac
     4:25.778     153088142 B   cxx   --   ---xx   flac  0.6811  06 Space.flac
     4:52.076     168235958 B   cxx   --   ---xx   flac  0.6810  07 Spanish Jam.flac
    10:17.486     355671920 B   cxx   --   ---xx   flac  0.7029  08 The Other One.flac
    89:28.944    3092512078 B                            0.6871  (8 files)


Show Checksums
ffp
01 Scarlet Begonias.flac:9faeb64a5b986461935f80ffb1bf05a4
02 Fire On The Mountain.flac:1e5b0d20c50e4e05c113d7976652c8be
03 Estimated Prophet.flac:6a196c7f2f4ce00bc23f03189d2ea5a8
04 Eyes Of The World.flac:d99537d00214f84249db3a49e7c4bee5
05 Drums.flac:bcdba7f62587f25d7d951d94153f5917
06 Space.flac:157c93033695f6fd9d545ed2f2a54346
07 Spanish Jam.flac:49333e4f42727c976a0acf3243a46609
08 The Other One.flac:1c9e5575fa6bb05b8bec1a3275302e3e
flac-md5
3f8e1ff7dea362f0120dbe3accec9944 *01 Scarlet Begonias.flac
f099cb03b05ed0a3e39f8ca9f421b141 *02 Fire On The Mountain.flac
9ab6a5482f9371ebb02dfd01e4a90eaf *03 Estimated Prophet.flac
aa99eebc7c5d2855897c497c130668bf *04 Eyes Of The World.flac
bb268d2d30633eb30f445e5d2e131302 *05 Drums.flac
3c741e39476e0ec1ad157a6be38bdd30 *06 Space.flac
2143cb3989a60c01751383b5ec6a26c8 *07 Spanish Jam.flac
9573664c426a7d00dcd3b77653a0c9d4 *08 The Other One.flac

Comments
Add Comment
Other Sources (comments)
3 ATM 11 (tapers section) >... (0) Ficca FOB Sony TCD5M with 2... (1) 2 Nak 700's>Sony... (4) flac16; Lineage:... (0) flac16; Nakamichi... (0) flac16; Recording... (0) flac24;nak 300/cp4... (1) flac24; Nakamichi... (0) flac24; Updated... (0) flac16; AUD:... (0) flac24; Master... (0) flac16; Master... (0) flac16; Partial Set... (0)
Date User Comment