Browse Collections Artists Sources   Search Dates

Add Show    List Management    Help


Grateful Dead 10/17/83
Olympic Center, Lake Placid, NY
Comments Add Comment    Source Collectors    Add to Collection    Add to Want List    History
Source # 137305 Other Sources
Entered by Matt Vernon
Checksums ffp , flac-md5
Disc Counts 0 / 0
Media Size Compressed: 3.72 GB (3998266529 bytes)
Uncompressed: 5.26 GB (5647779152 bytes)
Date Circulated
Date Added
11/30/2016
11/30/2016
Source Summary flac24; Recording Info: (FOB) Sennheiser 421 > Sony TC-D5M > Cassette Master (Sony WM-D6 Patched); Transfer Info: Cassette Master (Nakamichi DR-1) > Tascam DA-3000 (DSF 1-bit/5.8 MHz) > KORG AudioGate 4 > Adobe Audition CC 2015 > Samplitude Pro X3 Suite > FLAC/24; All Transfers and Mastering By Charlie Miller 
  Archive
Source Information - Download Text | Download Zip
Grateful Dead - October 17, 1983
Olympic Arena - Lake Placid, NY

Recording Info:
(FOB) Sennheiser 421 > Sony TC-D5M > Cassette Master (Sony WM-D6 Patched)

Transfer Info:
Cassette Master (Nakamichi DR-1) > Tascam DA-3000 (DSF 1-bit/5.8 MHz) >
KORG AudioGate 4 > Adobe Audition CC 2015 > Samplitude Pro X3 Suite > FLAC/24
(1 Disc FLAC)

All Transfers and Mastering By Charlie Miller
[email protected]
November 26, 2016

Notes:
-- Thanks to Joe B. Jones for his help with the pitch correction

Set 1:
01 - Sugaree >
02 - Little Red Rooster
03 - Friend Of The Devil
04 - My Brother Esau
05 - Bird Song
06 - Hell In A Bucket >
07 - Deal

Set 2:
08 - Touch Of Grey
09 - Samson And Delilah
10 - To Lay Me Down >
11 - Man Smart (Woman Smarter)
12 - Terrapin Station >
13 - Drums >
14 - Space >
15 - The Wheel >
16 - I Need A Miracle >
17 - Goin' Down The Road Feeling Bad >
18 - Good Lovin'

Encore:
19 - Revolution


SHNTOOL OUTPUT:
    length     expanded size    cdr  WAVE problems  fmt   ratio  filename
    16:27.104     568571774 B   cxx   --   ---xx   flac  0.7135  01 Sugaree.flac
     9:00.128     311113946 B   cxx   --   ---xx   flac  0.7065  02 Little Red Rooster.flac
     9:21.093     323189702 B   cxx   --   ---xx   flac  0.7125  03 Friend Of The Devil.flac
     5:27.685     188746490 B   cxx   --   ---xx   flac  0.7183  04 My Brother Esau.flac
    12:54.133     445900682 B   cxx   --   ---xx   flac  0.7110  05 Bird Song.flac
     6:19.708     218712116 B   cxx   --   ---xx   flac  0.7180  06 Hell In A Bucket.flac
    10:38.274     367645910 B   cxx   --   ---xx   flac  0.7141  07 Deal.flac
     6:37.936     229211000 B   cxx   --   ---xx   flac  0.7143  08 Touch Of Grey.flac
     9:15.243     319820102 B   cxx   --   ---xx   flac  0.7122  09 Samson And Delilah.flac
     8:58.282     310050728 B   cxx   --   ---xx   flac  0.7087  10 To Lay Me Down.flac
     7:35.048     262107854 B   cxx   --   ---xx   flac  0.7134  11 Man Smart (Woman Smarter).flac
    12:34.889     434815964 B   cxx   --   ---xx   flac  0.7043  12 Terrapin Station.flac
     5:03.716     174940172 B   cxx   --   ---xx   flac  0.6992  13 Drums.flac
    11:07.115     384258416 B   cxx   --   ---xx   flac  0.6760  14 Space.flac
     6:58.097     240823718 B   cxx   --   ---xx   flac  0.6992  15 The Wheel.flac
     4:36.438     159228398 B   cxx   --   ---xx   flac  0.7100  16 I Need A Miracle.flac
     7:15.065     250597646 B   cxx   --   ---xx   flac  0.7051  17 Goin' Down The Road Feeling Bad.flac
     8:05.532     279666566 B   cxx   --   ---xx   flac  0.7069  18 Good Lovin'.flac
     5:09.684     178377968 B   cxx   --   ---xx   flac  0.7171  19 Revolution.flac
   163:25.171    5647779152 B                            0.7079  (19 files)


Show Checksums
ffp
01 Sugaree.flac:b8fc52eef2c5cdb2145adce7e1bec4f5
02 Little Red Rooster.flac:c154b456bc80e08853ac194fc44ca08a
03 Friend Of The Devil.flac:a59f95be444e99d53286609e0a8724f4
04 My Brother Esau.flac:4c89bed7290bafdfef9b085db5fcbc5a
05 Bird Song.flac:87bd13e83258c3ba6df651b5ccdadd09
06 Hell In A Bucket.flac:71565369574a60fc9ec00a569317c20c
07 Deal.flac:38ed0c3def37046abbf3064c5d6378fa
08 Touch Of Grey.flac:390930f11b08a86a300cf0e2045ce564
09 Samson And Delilah.flac:13dca53934dac7fed2189ee4595a0644
10 To Lay Me Down.flac:c372396bd3393a81cb502bde7d1b1743
11 Man Smart (Woman Smarter).flac:583f012cd0a1d86c5e1a8ac066f936bd
12 Terrapin Station.flac:121a66dfc68d44c80edf0f6ba78ce9a5
13 Drums.flac:c55ab891469e8f6a3f89a908792d7f59
14 Space.flac:52bc67f36fabff7085ed9293b7d3ecd5
15 The Wheel.flac:9fc9cf6cad4d7c7011897f63bd640bdb
16 I Need A Miracle.flac:00e2309872a9947085b7f7941c07c258
17 Goin' Down The Road Feeling Bad.flac:b57cd9d02e41b801c27bda4eeccadd88
18 Good Lovin'.flac:ecdd7ae9e33f3f5e14b07ef459d7c12b
19 Revolution.flac:1bec74505ed32e9ae35aa80726bfbe1b
flac-md5
84c8b63127480f553f73a0a35c603595 *01 Sugaree.flac
57e61a4ae97795c8bc617ba86265eb2e *02 Little Red Rooster.flac
591d8a332193afa8bbc3596e4bdd5638 *03 Friend Of The Devil.flac
602e0074e9442a21870d974327c8a6bd *04 My Brother Esau.flac
5201da654ff9880f0fa575baf4da369c *05 Bird Song.flac
7f85250cb4a6db34f68f4bbc21131ca9 *06 Hell In A Bucket.flac
2175557bb9b4e6297a1efd1f0426c648 *07 Deal.flac
214817bded1dbc22e2e3016f66de4040 *08 Touch Of Grey.flac
365731965619a994dbe653dca5d555bf *09 Samson And Delilah.flac
17a5f34f4963b5a4439bf2bc7d3110ad *10 To Lay Me Down.flac
bfb4c67767d2b441a2785810a4c1ce52 *11 Man Smart (Woman Smarter).flac
12d39d36262c7dcdc37174050921c920 *12 Terrapin Station.flac
c4ded15dabb67ff9a7676a5f5b2cfe84 *13 Drums.flac
011519b85fb2c84955f0ae6cd9e1c11f *14 Space.flac
ddbbf737aad6233cf3035a5948ec5706 *15 The Wheel.flac
61e15d4669086e56c3515b3091e9ddf9 *16 I Need A Miracle.flac
bf1762736695a9fb53764b7863396625 *17 Goin' Down The Road Feeling Bad.flac
4e203140a7db602491c517e005e530ce *18 Good Lovin'.flac
90cf0019040f6bf103259de5936f7cc9 *19 Revolution.flac

Comments
Add Comment
Other Sources (comments)
FOB (12th Row) > Sennheiser... (1) reDAE of very same audio CD... (0) flac16; mixed SBD... (1) flac16; Source: DAT... (0) flac16; Recording... (0) MATRIX MIX: 2 SBD/ 1 AUD... (0) MATRIX MIX: 2 SBD/ 1 AUD... (1) flac16; MATRIX MIX:... (0) flac16; Lineage:... (1) flac16; 2 Beyer... (0) flac16; Source: 2... (0) flac24; lineage:... (0) flac16; Master... (0) flac24; Master... (0) flac16; Recording... (0)
Date User Comment