Browse Collections Artists Sources   Search Dates

Add Show    List Management    Help


Grateful Dead 10/18/83
Cumberland County Civic Center, Portland, ME
Comments Add Comment    Source Collectors    Add to Collection    Add to Want List    History
Source # 137306 Other Sources
Entered by Matt Vernon
Checksums ffp , flac-md5
Disc Counts 0 / 0
Media Size Compressed: 3.88 GB (4170406246 bytes)
Uncompressed: 5.12 GB (5496653328 bytes)
Date Circulated
Date Added
11/30/2016
11/30/2016
Source Summary flac24; Recording Info: (FOB) Sennheiser 421 > Sony TC-D5M > Cassette Master (Sony WM-D6 Patched); Transfer Info: Cassette Master (Nakamichi DR-1) > Tascam DA-3000 (DSF 1-bit/5.8 MHz) > KORG AudioGate 4 > Adobe Audition CC 2015 > Samplitude Pro X3 Suite > FLAC/24; All Transfers and Mastering By Charlie Miller 
  Archive
Source Information - Download Text | Download Zip
Grateful Dead - October 18, 1983
Cumberland County Civic Center - Portland, ME

Recording Info:
(FOB) Sennheiser 421 > Sony TC-D5M > Cassette Master (Sony WM-D6 Patched)

Transfer Info:
Cassette Master (Nakamichi DR-1) > Tascam DA-3000 (DSF 1-bit/5.8 MHz) >
KORG AudioGate 4 > Adobe Audition CC 2015 > Samplitude Pro X3 Suite > FLAC/24
(1 Disc FLAC)

All Transfers and Mastering By Charlie Miller
[email protected]
November 28, 2016

Notes:
-- Thanks to Joe B. Jones for his help with the pitch correction

Set 1:
01 - Jack Straw
02 - They Love Each Other
03 - Me And My Uncle >
04 - Mexicali Blues
05 - Dupree's Diamond Blues
06 - C.C. Rider
07 - Althea
08 - Lazy Lightning >
09 - Supplication
10 - Might As Well

Set 2:
11 - China Cat Sunflower >
12 - I Know You Rider
13 - Estimated Prophet >
14 - He's Gone >
15 - Drums >
16 - Space >
17 - Not Fade Away >
18 - Black Peter >
19 - Around And Around >
20 - Sugar Magnolia

Encore:
21 - U.S. Blues


SHNTOOL OUTPUT:
    length     expanded size    cdr  WAVE problems  fmt   ratio  filename
     6:34.038     226965872 B   cxx   --   ---xx   flac  0.7568  01 Jack Straw.flac
     8:49.029     304720880 B   cxx   --   ---xx   flac  0.7611  02 They Love Each Other.flac
     2:59.238     103240934 B   cxx   --   ---xx   flac  0.7858  03 Me And My Uncle.flac
     5:41.328     196605218 B   cxx   --   ---xx   flac  0.7857  04 Mexicali Blues.flac
     6:05.989     210809546 B   cxx   --   ---xx   flac  0.7716  05 Dupree's Diamond Blues.flac
     9:18.933     321945584 B   cxx   --   ---xx   flac  0.7699  06 CC Rider.flac
     9:49.665     339647072 B   cxx   --   ---xx   flac  0.7566  07 Althea.flac
     3:48.947     131873594 B   cxx   --   ---xx   flac  0.7784  08 Lazy Lightning.flac
     8:07.456     280774676 B   cxx   --   ---xx   flac  0.7817  09 Supplication.flac
     4:28.224     154497182 B   cxx   --   ---xx   flac  0.7981  10 Might As Well.flac
     7:56.562     274499798 B   cxx   --   ---xx   flac  0.7320  11 China Cat Sunflower.flac
     6:13.014     214855880 B   cxx   --   ---xx   flac  0.7646  12 I Know You Rider.flac
    11:56.463     412682540 B   cxx   --   ---xx   flac  0.7668  13 Estimated Prophet.flac
     9:28.891     327681056 B   cxx   --   ---xx   flac  0.7496  14 He's Gone.flac
    10:42.183     369897632 B   cxx   --   ---xx   flac  0.7384  15 Drums.flac
     9:10.783     317250782 B   cxx   --   ---xx   flac  0.6924  16 Space.flac
     9:39.205     333622058 B   cxx   --   ---xx   flac  0.7504  17 Not Fade Away.flac
     8:26.050     291484814 B   cxx   --   ---xx   flac  0.7450  18 Black Peter.flac
     3:43.369     128660750 B   cxx   --   ---xx   flac  0.7473  19 Around And Around.flac
    10:39.434     368314076 B   cxx   --   ---xx   flac  0.7804  20 Sugar Magnolia.flac
     5:23.999     186623384 B   cxx   --   ---xx   flac  0.7877  21 US Blues.flac
   159:02.799    5496653328 B                            0.7587  (21 files)


Show Checksums
ffp
01 Jack Straw.flac:c87b7f8d83ffe319a6ea833be160997c
02 They Love Each Other.flac:342d32a5a7890feef315a8ecea055360
03 Me And My Uncle.flac:bc023b42d9a1d2cd236c4bd46defe20e
04 Mexicali Blues.flac:206e8d28c5704ec2fa6066c1b575be5b
05 Dupree's Diamond Blues.flac:d25e862282a29c38aa41509127f22deb
06 CC Rider.flac:4b976905f3a18eeb00b07b91346cde44
07 Althea.flac:2feedc73f23d2cb93bd6f9fc1804a480
08 Lazy Lightning.flac:0c97ced0538edb8f43fbbde9bd2b6a4f
09 Supplication.flac:5a82c7be036bdd32b68a145cc79fef7c
10 Might As Well.flac:005a1994225cbd91bba89a75b9dc20a5
11 China Cat Sunflower.flac:149313f06e633eb4e481574d3f802902
12 I Know You Rider.flac:dd1ad6738c4f0e73d316e60c9add258e
13 Estimated Prophet.flac:66cc70721bd90e7edd25962bd72a33bf
14 He's Gone.flac:490bb6513d233013eb550ebeab1cc664
15 Drums.flac:562f28f9c5d4f25c60667596434606f8
16 Space.flac:60a1f415313b316e51cb08c6cfc4fc8f
17 Not Fade Away.flac:d226117f42c9b9c06c4861ca5309298e
18 Black Peter.flac:c001c251cd2594c9db63fa2aa7aba8cc
19 Around And Around.flac:5bb3b44cef01dfb6008a22e53240628d
20 Sugar Magnolia.flac:28f155f48cfe3b8cd9f7737f6d34cc16
21 US Blues.flac:c8ef25acbccd522fe135ec283714aaf0
flac-md5
8310e7ebd25a7a4cb9ce683bd6774564 *01 Jack Straw.flac
ebc1306ad78956df8c7b3df510d474ec *02 They Love Each Other.flac
9a7f479b22294a90bffff764a38d5073 *03 Me And My Uncle.flac
74bc273d3fa45922d83af38afecb8d5b *04 Mexicali Blues.flac
0849edc9eb31eec88ed3df921104ee36 *05 Dupree's Diamond Blues.flac
68e13072d5a143c7863f8f141932b051 *06 CC Rider.flac
f7596a41ac07fafaa2dd1320f905c014 *07 Althea.flac
16396f7e1e31768c54d8751f525fe68c *08 Lazy Lightning.flac
46be1f82dbacff6c34179d2e63de66ae *09 Supplication.flac
6a1d06b9fea986f25b63dc9850d1cde6 *10 Might As Well.flac
962ba4986060902e48d5b45574fd35b8 *11 China Cat Sunflower.flac
8f8303cb1468e315533faaac0fac72d5 *12 I Know You Rider.flac
03b693edb2c1e5736f1e84162a00ca60 *13 Estimated Prophet.flac
8d6cb24b13faf46f5c706cf6b684f475 *14 He's Gone.flac
150f29739e086785b9eb88e32eb900df *15 Drums.flac
b92aeab6bf93284f531f13d988b9aa63 *16 Space.flac
449b659fc8341361310a1eeb33bf253d *17 Not Fade Away.flac
c507860b8c659903e0b4ca77bb34ed2e *18 Black Peter.flac
64de476cb493a947cd734d328e4ca1ad *19 Around And Around.flac
f278ca31ef6fddb9ccbf049387c93f64 *20 Sugar Magnolia.flac
a71d6726cb03cc1a6df1c70d9a80b80e *21 US Blues.flac

Comments
Add Comment
Other Sources (comments)
FOB-AUD> MC> CDR; via Paul... (0) flac16; Set One... (0) flac16; Recording... (0) flac16; (FOB)... (0) flac16; Lineage:... (0) flac24; (FOB)... (0) flac16; Source: 2... (0) flac16; 3 - Nak... (0) flac24; lineage:... (0) flac16; Master... (0) flac24; Master... (0) flac16; Recording... (0) flac1648; Master... (0)
Date User Comment