Browse Collections Artists Sources   Search Dates

Add Show    List Management    Help


Robert Hunter 06/03/84
Kabuki Theater, San Francisco, CA
Comments Add Comment    Source Collectors    Add to Collection    Add to Want List    History
Source # 137358 Other Sources
Entered by Greg Yurkovic
Checksums rh1984-06-03.md5 , rh1984-06-03.ffp
Disc Counts 0 / 0
Media Size Compressed: 239 MB (250609664 bytes)
Date Circulated
Date Added
12/08/2016
12/08/2016
Source Summary flac16: Sony L-750ESX-HFB Dynamicron EXCELLENT SUPER HIFI VIDEO CASSETTE->Sony SLO-1800 STEREO VIDEOCASSETTE RECORDER->Sony PCM-601ESD DIGITAL AUDIO PROCESSOR-> SP/DIF->Mytek Stereo 192 Sample Rate Converter-> Upsampled to 44.1kHz/24bit->SP/DIF->RME FIREFACE 800-> FireWire 400-> Lenovo K450e Desktop PC-> WaveLab 6.11-> FLAC 
Source Information - Download Text | Download Zip
Robert Hunter
Sunday, June 3, 1984
Kabuki Theater,
San Francisco, CA

Audience

Sony L-750ESX-HFB Dynamicron EXCELLENT SUPER HIFI VIDEO CASSETTE->
Sony SLO-1800 STEREO VIDEOCASSETTE RECORDER->
Sony PCM-601ESD DIGITAL AUDIO PROCESSOR-> SP/DIF->
Mytek Stereo 192 Sample Rate Converter-> Upsampled to 44.1kHz/24bit->SP/DIF->
RME FIREFACE 800-> FireWire 400->
Lenovo K450e Desktop PC-> WaveLab 6.11

This recording was gratefully supplied by PO and Stucco TINA Holmes.

Editing and Mastering by Jamie Waddell in Wavelab 7.1
Track, FLAC and Pack by John Wenzel

16 bit 44.1kHz
a project **GEMS** Betamania Release 2016-12-07

01 //Roseanne
02 Amagamalin Street
03 Ithaca ->
04 Don't Be Deceived
05 Taking Maggie Home
06 Mr. Charlie ->
07 Easy Wind
08 Cruel White Water
09 Dedication To Rodney Albin
10 Box Of Rain
--Encore--
11 Boys In The Barroom

Notes: Opening for Jerry Garcia and John Kahn
The very beginning of Roseanne is cut, the curtain rose as the first notes were played.
Fade outs after Cruel White Water and Box Of Rain, one of these is a tape flip.
Boys In The Barroom complete, unlike shnid.094038.
This source was not compared with the Hunter set on the Garcia & Kahn recording by
Greeney55, shnid.108054 as I was unable to obtain that shnid.

Rodney Albin passed away May 30 and played violin and bass with Roadhog,
violin and mandolin with Comfort, and played violin on Hunter's Amagamalin Street LP.


originally shared at www.shnflac.net

SHNTOOL OUTPUT:
    length     expanded size    cdr  WAVE problems  fmt   ratio  filename
    13:53.55      147070604 B   ---   --   ---xx   flac  0.5321  rh1984-06-03t01.flac
     4:40.13       49422620 B   ---   --   ---xx   flac  0.5045  rh1984-06-03t02.flac
     3:00.71       31919036 B   ---   --   ---xx   flac  0.4749  rh1984-06-03t03.flac
     2:55.58       31006460 B   ---   --   ---xx   flac  0.4890  rh1984-06-03t04.flac
     2:04.14       21906572 B   ---   --   ---xx   flac  0.5126  rh1984-06-03t05.flac
     2:12.36       23369516 B   ---   --   ---xx   flac  0.5277  rh1984-06-03t06.flac
     3:05.33       32711660 B   ---   --   ---xx   flac  0.5231  rh1984-06-03t07.flac
     5:21.60       56765564 B   ---   --   ---xx   flac  0.5293  rh1984-06-03t08.flac
     0:21.34        3784412 B   ---   --   ---xx   flac  0.4217  rh1984-06-03t09.flac
     6:58.29       73803452 B   ---   --   ---xx   flac  0.4841  rh1984-06-03t10.flac
     1:38.49       17402492 B   ---   --   ---xx   flac  0.5707  rh1984-06-03t11.flac
    46:13.02      489162388 B                            0.5141  (11 files)

Show Checksums
rh1984-06-03.md5
79129c500fa0f83f61e7c712b23a1e71 *rh1984-06-03t01.flac
9407457b7031a5f45d98c85ed0ec3654 *rh1984-06-03t02.flac
dead6941875896f807c33c461f9f14c1 *rh1984-06-03t03.flac
516bc15a96ec2195a0269836fd327c73 *rh1984-06-03t04.flac
bc062d12133455eee1446994feb57b1d *rh1984-06-03t05.flac
6b5e8e28f8b8ac6be14df1c053cb376b *rh1984-06-03t06.flac
5c3b7a03fb4be1c3f56dfca3a86eaf6d *rh1984-06-03t07.flac
fc951a31ae952a9a5860c1dfc67f6454 *rh1984-06-03t08.flac
2016b247644a49be4cff6d1459b28214 *rh1984-06-03t09.flac
a915409ad7a2c029704bb7a19d7beeec *rh1984-06-03t10.flac
f6a27103e5c25b3631592e851e1f7f7b *rh1984-06-03t11.flac
rh1984-06-03.ffp
rh1984-06-03t01.flac:d184a527c02308a8bf178df586cc2b0d
rh1984-06-03t02.flac:b7d89c07a8305a84a9690806b0990e44
rh1984-06-03t03.flac:7ad92bbf4eed00b01ddb981314b1d66a
rh1984-06-03t04.flac:ed65165703795677553cf03456b2d44f
rh1984-06-03t05.flac:3477913ec00671efed4065b398b309c7
rh1984-06-03t06.flac:2f7c88ceb54bd5fa4e0d1e7383e1a25e
rh1984-06-03t07.flac:f0e46118d7ce732ada8160427e266ee9
rh1984-06-03t08.flac:63cb483353aa91e570a5fe4e903a928e
rh1984-06-03t09.flac:7a78b41d4a3a0da18553bd737b695cf9
rh1984-06-03t10.flac:7389f075625410b6a5e47a2e235e99e4
rh1984-06-03t11.flac:5c024029cfd958bb6b3cda6aee387713

Comments
Add Comment
Other Sources (comments)
flac16: Sony WMD6C,... (0)
Date User Comment