Browse Collections Artists Sources   Search Dates

Add Show    List Management    Help


Grateful Dead 05/09/81
Nassau Veterans Memorial Coliseum, Uniondale, NY
Comments Add Comment    Source Collectors    Add to Collection    Add to Want List    History
Source # 137366 Other Sources
Entered by Matt Vernon
Checksums ffp , flac-md5
Disc Counts 0 / 0
Media Size Compressed: 3.27 GB (3511149981 bytes)
Uncompressed: 5.59 GB (6005123660 bytes)
Date Circulated
Date Added
12/10/2016
12/10/2016
Source Summary flac24; Sennheiser MD421 Dynamic Cardioid Microphones > TC D5 Cassette Recorders> Jim Wise's Cassette Audience Master; Location: Soundboard Stand permitted by Dan Healy; Transfer: Dolby B Decoded Cassette Master played back on Nakamichi Dragon-Korg MR-1000 > DSF 1-bit 5.6448 MHz Stereo > Korg AudioGate > WAV 24/96; Lineage: Wav 24/96 > Adobe Audition 3.0.1 > > iZotope RX4 Advanced > iZotope Ozone 5 Advanced > CD Wave > TLH > Flac24; Transferred by David Minches; Edited and mastered SIRMick 
  Archive
Source Information - Download Text | Download Zip
Grateful Dead
Nassau Veterans Memorial Coliseum
Uniondale, NY
1981-05-09 8:00 P.M.

Source: Sennheiser MD421 Dynamic Cardioid Microphones > TC D5 Cassette Recorders> Jim Wise's Cassette Audience Master
        Recorded By Jeff Hellman (lead deck) > Eddie Claridge (2nd deck) > Jim Wise (3rd deck)
        Location: Soundboard Stand permittted by Dan Healy

Transfer: Dolby B Decoded Cassette Master played back on Nakamichi Dragon-Korg MR-1000 > DSF 1-bit 5.6448 MHz Stereo >
          Korg AudioGate > WAV 24/96
          Transfer by David Minches July 2016

Lineage: Wav 24/96 > Adobe Audition 3.0.1 > > iZotope RX4 Advanced > iZotope Ozone 5 Advanced > CD Wave > TLH > Flac24




Set I

01   tuning
02   Mississippi Half Step Uptown Toodleoo >
03   Franklin's Tower >
04   Feel Like A Stranger
05   Bird Song
06   Little Red Rooster
07   Candyman
08   Mama Tried >
09   Mexicali Blues
10   Looks Like Rain >
11   China Cat Sunflower >
12   I Know You Rider


Set II

01   crowd/tuning
02   Lost Sailor >
03   Saint Of Circumstance
04   Ship Of Fools
05   Estimated Prophet >
06   Eyes Of The World >
07   Drums >
08   Space >
09   Truckin' >
10   jam >
11   Black Peter >
12   Around And Around >
13   One More Saturday Night

encore

[Missing] Brokedown Palace



Notes:

Patches

- Mississippi Half Step Uptown Toodleoo 0:26-0:35, 0:47-0:55
- flip after Little Red Rooster 8:03-8:14
- flip and cut in Eyes Of The World 11:40-12:15, 12:37-12:40
- flip at end of Black Peter 9:20-9:33

Patch source: Barry Glassberg's Fob - NAK-700's > SONY TC-D5M

- DC offset eliminated
- Phase adjustment made
- A few minor artifacts repaired
- Pitch correction (Jim Wise)


Thanks David for the transfer and Jim for providing his masters and pitch correction.


edited and mastered
SIRMick
December 2016


snhtool output:

    length     expanded size    cdr  WAVE problems  fmt   ratio  filename
     0:24.813      14292524 B   cxx   --   ---xx   flac  0.5620  gd1981-05-09s1t01.flac
     7:54.107     273085484 B   cxx   --   ---xx   flac  0.5866  gd1981-05-09s1t02.flac
    10:03.387     347550764 B   cxx   --   ---xx   flac  0.5914  gd1981-05-09s1t03.flac
     8:35.413     296878124 B   cxx   --   ---xx   flac  0.5886  gd1981-05-09s1t04.flac
     9:51.213     340538924 B   cxx   --   ---xx   flac  0.5591  gd1981-05-09s1t05.flac
     8:48.680     304519724 B   cxx   --   ---xx   flac  0.5715  gd1981-05-09s1t06.flac
     6:54.947     239009324 B   cxx   --   ---xx   flac  0.5550  gd1981-05-09s1t07.flac
     2:25.907      84042284 B   cxx   --   ---xx   flac  0.5839  gd1981-05-09s1t08.flac
     4:32.253     156817964 B   cxx   --   ---xx   flac  0.5837  gd1981-05-09s1t09.flac
     8:07.627     280873004 B   cxx   --   ---xx   flac  0.5554  gd1981-05-09s1t10.flac
     6:27.533     223219244 B   cxx   --   ---xx   flac  0.5826  gd1981-05-09s1t11.flac
     5:45.547     199034924 B   cxx   --   ---xx   flac  0.5870  gd1981-05-09s1t12.flac
     1:22.307      47408684 B   cxx   --   ---xx   flac  0.5195  gd1981-05-09s2t01.flac
     6:42.627     231913004 B   cxx   --   ---xx   flac  0.5692  gd1981-05-09s2t02.flac
     6:48.120     235077164 B   cxx   --   ---xx   flac  0.5918  gd1981-05-09s2t03.flac
     9:03.773     313213484 B   cxx   --   ---xx   flac  0.5377  gd1981-05-09s2t04.flac
    11:32.627     398953004 B   cxx   --   ---xx   flac  0.5585  gd1981-05-09s2t05.flac
    14:23.533     497395244 B   cxx   --   ---xx   flac  0.5659  gd1981-05-09s2t06.flac
     9:49.213     339386924 B   cxx   --   ---xx   flac  0.5330  gd1981-05-09s2t07.flac
     4:43.413     163246124 B   cxx   --   ---xx   flac  0.5545  gd1981-05-09s2t08.flac
     8:47.960     304105004 B   cxx   --   ---xx   flac  0.5778  gd1981-05-09s2t09.flac
     2:46.987      96184364 B   cxx   --   ---xx   flac  0.5171  gd1981-05-09s2t10.flac
     9:39.267     333657644 B   cxx   --   ---xx   flac  0.5374  gd1981-05-09s2t11.flac
     3:45.800     130060844 B   cxx   --   ---xx   flac  0.5777  gd1981-05-09s2t12.flac
     4:28.507     154659884 B   cxx   --   ---xx   flac  0.5930  gd1981-05-09s2t13.flac
   173:45.560    6005123660 B                            0.5663  (25 files)



Show Checksums
ffp
gd1981-05-09s1t01.flac:e49021e1c7b52c19d047ffcafcf0fdb5
gd1981-05-09s1t02.flac:2bcfaa4343bf99e7706885d1572d8917
gd1981-05-09s1t03.flac:b060d5fb0c2464acabf1620ce8ba3536
gd1981-05-09s1t04.flac:0cb61e860043178d9f98327d9497bb69
gd1981-05-09s1t05.flac:2e27df61a18de08b49937fefd629b54b
gd1981-05-09s1t06.flac:dbe9cec18f0b4f1e06765436446d03eb
gd1981-05-09s1t07.flac:3fe8a229487916f9919b9886c6b55311
gd1981-05-09s1t08.flac:9d615d7c225f81cf1814d04bc6b84c00
gd1981-05-09s1t09.flac:a3618ef9f36c5de47abadf2a41e1186b
gd1981-05-09s1t10.flac:b60cf49f367743e17a475040f56ed4e0
gd1981-05-09s1t11.flac:d6790ffe9a4b2992a79304da45ea638d
gd1981-05-09s1t12.flac:6f475be9180548a7474742b1d1954b7e
gd1981-05-09s2t01.flac:28054e3902d171b6f44d9a33ce6447b2
gd1981-05-09s2t02.flac:a17239b566f0d037751a94fc4111b212
gd1981-05-09s2t03.flac:607ae6859f79d5d51465090b9018eef6
gd1981-05-09s2t04.flac:d215cc6f61c07e27e7493dff11764878
gd1981-05-09s2t05.flac:513cf7559ce93218ea3c320e21e113ea
gd1981-05-09s2t06.flac:bb9964ed7508854d9e83acee0ffaedd2
gd1981-05-09s2t07.flac:4ccb07d527082ccecf545cac16667f9f
gd1981-05-09s2t08.flac:f61632b2f7496c044e22b0359a8489c2
gd1981-05-09s2t09.flac:10c1b8d7b7329d85fc5e5dd28645b44a
gd1981-05-09s2t10.flac:6f5ff1fb790e02f0f6de9ccdbf54c9e9
gd1981-05-09s2t11.flac:19ac5c965a9a8ba55bb12b9595f1b4e5
gd1981-05-09s2t12.flac:dbb933c7970501c80bac147e6a283980
gd1981-05-09s2t13.flac:76115f777e2fa52419e4e8f4bc2bd0e5
flac-md5
cd166301bc954df2c9416a27db7b650e *gd1981-05-09s1t01.flac
a3cc60a2bdec4a070d6e19c3976bd819 *gd1981-05-09s1t02.flac
3b7034c0b9ae7cb7ff21e616508ce962 *gd1981-05-09s1t03.flac
8d68abc4f8baefe5e4e8f346a63d54eb *gd1981-05-09s1t04.flac
b7ee79ae2165a5f7e1aca070bdfcf309 *gd1981-05-09s1t05.flac
133a107df2ee049c010541aca46b1ebf *gd1981-05-09s1t06.flac
994b03840df9c1d5f6e2475c00f31355 *gd1981-05-09s1t07.flac
f0785e1b6dca7b7bf1086b05b3c2dea6 *gd1981-05-09s1t08.flac
99b5326ffe265ad17f0062005a3dc773 *gd1981-05-09s1t09.flac
af03aa21349cc1e5d0b69028ae6adacc *gd1981-05-09s1t10.flac
df379dc025e5b989c11d92a3c1c166fb *gd1981-05-09s1t11.flac
49b1ef55c031a7feb065bdf6f87330c4 *gd1981-05-09s1t12.flac
674f768c2765b8d9938276fbc8abe30b *gd1981-05-09s2t01.flac
ea7483d63f252020d7941115ceb0c982 *gd1981-05-09s2t02.flac
c10f19e1332f71e45b5489eb0e148539 *gd1981-05-09s2t03.flac
8e3b6d41d9f326518b8120d889cc55d6 *gd1981-05-09s2t04.flac
40dad8cdf948a766742b432dcbb17d35 *gd1981-05-09s2t05.flac
02864afb33e1a1a873795eae064ef7b3 *gd1981-05-09s2t06.flac
20ab4af62c7de3cc15d894edff90901a *gd1981-05-09s2t07.flac
3641e77c7d77064a692393387bf9d2dd *gd1981-05-09s2t08.flac
3febfcd2890c509a975f8a8ab650f040 *gd1981-05-09s2t09.flac
45074437bb1e35506e82817008be849d *gd1981-05-09s2t10.flac
c0908215e7098b3232d3f9af2fd6e61a *gd1981-05-09s2t11.flac
e3aa7957e4763e6ac0bddb4adf94d34c *gd1981-05-09s2t12.flac
6cd341f5a7480e37791040e75ee3332b *gd1981-05-09s2t13.flac

Comments
Add Comment
Other Sources (comments)
Recording by Jim Wise. AUD>... (1) Recording by Barry... (2) flac16;Recording By... (0) flac16; SBD ->... (0) flac16; MATRIX MIX:... (0) flac16; Matrix of... (1) flac16; Sennheiser... (1) flac16; source: aud... (0) flac24; source: aud... (0)
Date User Comment