Browse Collections Artists Sources   Search Dates

Add Show    List Management    Help


Grateful Dead 05/09/81
Nassau Veterans Memorial Coliseum, Uniondale, NY
Comments Add Comment    Source Collectors    Add to Collection    Add to Want List    History
Source # 137370 Other Sources
Entered by Matt Vernon
Checksums ffp , flac-md5
Disc Counts 0 / 0
Media Size Compressed: 1.06 GB (1139144620 bytes)
Uncompressed: 1.71 GB (1839069884 bytes)
Date Circulated
Date Added
12/11/2016
12/11/2016
Source Summary flac16; Sennheiser MD421 Dynamic Cardioid Microphones > TC D5 Cassette Recorders> Jim Wise's Cassette Audience Master; Location: Soundboard Stand permittted by Dan Healy; Transfer: Dolby B Decoded Cassette Master played back on Nakamichi Dragon-Korg MR-1000 > DSF 1-bit 5.6448 MHz Stereo > Korg AudioGate > WAV 24/96; Lineage: Wav 24/96 > Adobe Audition 3.0.1 > > iZotope RX4 Advanced > iZotope Ozone 5 Advanced > WAv 16/44.1 > CD Wave > TLH > Flac16; Transferred by David Minches; Edited and mastered SIRMick 
  Archive
Source Information - Download Text | Download Zip
Grateful Dead
Nassau Veterans Memorial Coliseum
Uniondale, NY
1981-05-09 8:00 P.M.

Source: Sennheiser MD421 Dynamic Cardioid Microphones > TC D5 Cassette Recorders> Jim Wise's Cassette Audience Master
        Recorded By Jeff Hellman (lead deck) > Eddie Claridge (2nd deck) > Jim Wise (3rd deck)
        Location: Soundboard Stand permittted by Dan Healy

Transfer: Dolby B Decoded Cassette Master played back on Nakamichi Dragon-Korg MR-1000 > DSF 1-bit 5.6448 MHz Stereo >
          Korg AudioGate > WAV 24/96
          Transfer by David Minches July 2016

Lineage: Wav 24/96 > Adobe Audition 3.0.1 > > iZotope RX4 Advanced > iZotope Ozone 5 Advanced > WAv 16/44.1 >
         CD Wave > TLH > Flac16




Set I

01   tuning
02   Mississippi Half Step Uptown Toodleoo >
03   Franklin's Tower >
04   Feel Like A Stranger
05   Bird Song
06   Little Red Rooster
07   Candyman
08   Mama Tried >
09   Mexicali Blues
10   Looks Like Rain >
11   China Cat Sunflower >
12   I Know You Rider


Set II

01   crowd/tuning
02   Lost Sailor >
03   Saint Of Circumstance
04   Ship Of Fools
05   Estimated Prophet >
06   Eyes Of The World >
07   Drums >
08   Space >
09   Truckin' >
10   jam >
11   Black Peter >
12   Around And Around >
13   One More Saturday Night

encore

[Missing] Brokedown Palace



Notes:

Patches

- Mississippi Half Step Uptown Toodleoo 0:26-0:35, 0:47-0:55
- flip after Little Red Rooster 8:03-8:14
- flip and cut in Eyes Of The World 11:40-12:15, 12:37-12:40
- flip at end of Black Peter 9:20-9:33

Patch source: Barry Glassberg's Fob - NAK-700's > SONY TC-D5M

- DC offset eliminated
- Phase adjustment made
- A few minor artifacts repaired
- Pitch correction (Jim Wise)


Thanks David for the transfer and Jim for providing his masters and pitch correction.


edited and mastered
SIRMick
December 2016


snhtool output:

    length     expanded size    cdr  WAVE problems  fmt   ratio  filename
     0:24.61        4377116 B   ---   --   ---xx   flac  0.5544  gd1981-05-09s1t01.flac
     7:54.08       83632460 B   ---   --   ---xx   flac  0.5838  gd1981-05-09s1t02.flac
    10:03.29      106437452 B   ---   --   ---xx   flac  0.5998  gd1981-05-09s1t03.flac
     8:35.31       90918956 B   ---   --   ---xx   flac  0.5971  gd1981-05-09s1t04.flac
     9:51.16      104290076 B   ---   --   ---xx   flac  0.5532  gd1981-05-09s1t05.flac
     8:48.51       93259196 B   ---   --   ---xx   flac  0.5644  gd1981-05-09s1t06.flac
     6:54.71       73196636 B   ---   --   ---xx   flac  0.5482  gd1981-05-09s1t07.flac
     2:25.68       25737980 B   ---   --   ---xx   flac  0.5878  gd1981-05-09s1t08.flac
     4:32.19       48025532 B   ---   --   ---xx   flac  0.5867  gd1981-05-09s1t09.flac
     8:07.47       86017388 B   ---   --   ---xx   flac  0.5485  gd1981-05-09s1t10.flac
     6:27.40       68360924 B   ---   --   ---xx   flac  0.5877  gd1981-05-09s1t11.flac
     5:45.41       60954476 B   ---   --   ---xx   flac  0.5901  gd1981-05-09s1t12.flac
     1:22.23       14518940 B   ---   --   ---xx   flac  0.4869  gd1981-05-09s2t01.flac
     6:42.47       71023388 B   ---   --   ---xx   flac  0.5570  gd1981-05-09s2t02.flac
     6:48.09       71992412 B   ---   --   ---xx   flac  0.5933  gd1981-05-09s2t03.flac
     9:03.58       95921660 B   ---   --   ---xx   flac  0.5151  gd1981-05-09s2t04.flac
    11:32.47      122179388 B   ---   --   ---xx   flac  0.5442  gd1981-05-09s2t05.flac
    14:23.40      152327324 B   ---   --   ---xx   flac  0.5592  gd1981-05-09s2t06.flac
     9:49.16      103937276 B   ---   --   ---xx   flac  0.5122  gd1981-05-09s2t07.flac
     4:43.31       49994156 B   ---   --   ---xx   flac  0.5338  gd1981-05-09s2t08.flac
     8:47.72       93132188 B   ---   --   ---xx   flac  0.5741  gd1981-05-09s2t09.flac
     2:46.74       29456492 B   ---   --   ---xx   flac  0.4783  gd1981-05-09s2t10.flac
     9:39.20      102182684 B   ---   --   ---xx   flac  0.5149  gd1981-05-09s2t11.flac
     3:45.60       39831164 B   ---   --   ---xx   flac  0.5746  gd1981-05-09s2t12.flac
     4:28.38       47364620 B   ---   --   ---xx   flac  0.5999  gd1981-05-09s2t13.flac
   173:45.42     1839069884 B                            0.5591  (25 files)





Show Checksums
ffp
gd1981-05-09s1t01.flac:a1faef5319dcf7b762df2dd34c13387e
gd1981-05-09s1t02.flac:1636571e2abd87a29506b8afa8521d72
gd1981-05-09s1t03.flac:2c6b27d151e7869913a1e214a6e5bc15
gd1981-05-09s1t04.flac:fcaaa6d1f9b195b64e838b002b76fa5b
gd1981-05-09s1t05.flac:09478f61f20412c0febdc7e385bdf834
gd1981-05-09s1t06.flac:8737282dab3d61f86c3e8b349d5fdbea
gd1981-05-09s1t07.flac:ffe91937296d1c4b395c3a87e0652cee
gd1981-05-09s1t08.flac:0c0541a540292550a2b0b995ed2dfb2f
gd1981-05-09s1t09.flac:faa1c473bfdd0e847d660e7d50d30424
gd1981-05-09s1t10.flac:cde897564fd6af9658c8abcd47b6cffe
gd1981-05-09s1t11.flac:8c5ca87bd90ebcc3ef5dffcede8df9a6
gd1981-05-09s1t12.flac:2bb9cd66f95d54aa6da728fe7ea456f6
gd1981-05-09s2t01.flac:4b596e75cf1cc8a84daf0e166f717222
gd1981-05-09s2t02.flac:0b55a8063a100172094415e1d2d5a0e3
gd1981-05-09s2t03.flac:24b0648d747b4c75b442cf15cd588ead
gd1981-05-09s2t04.flac:9d7c05534d8416df7a13ef7ecb0f8f89
gd1981-05-09s2t05.flac:c0f476e9d75f580623e04b07fff60b83
gd1981-05-09s2t06.flac:95910001163bc41d8f20c65141c7a3c0
gd1981-05-09s2t07.flac:de6b25af495a08bab157014936bf0688
gd1981-05-09s2t08.flac:3c7c8742838e23f0b3b54a399a3e9a36
gd1981-05-09s2t09.flac:de094d71429bd3f946f4a12b336d86d5
gd1981-05-09s2t10.flac:e5bd315e4f5d6a7b11962e14cc112297
gd1981-05-09s2t11.flac:9de1083d8fb642f0a8716082251a56c3
gd1981-05-09s2t12.flac:3e311e357a42143cf6afae88d28a21f2
gd1981-05-09s2t13.flac:8fe7dbf3df62fc8f9c2cfcab9c512f54
flac-md5
114c1bd5c59969562aced3e5d6eb641c *gd1981-05-09s1t01.flac
701591ce0954d55c181add2f84ff975a *gd1981-05-09s1t02.flac
6e65c2d8731507a3cfe8424de3793d0b *gd1981-05-09s1t03.flac
a8ef9bb05c6cbd730a58c6a57baee3c0 *gd1981-05-09s1t04.flac
8aa0eeac41d5f9624138402c584d3a92 *gd1981-05-09s1t05.flac
0066ae0b6c596f10283cbf68326d4563 *gd1981-05-09s1t06.flac
0d2ec6cdd70cb6a8a889674d00b63561 *gd1981-05-09s1t07.flac
9813841ea849b03930a34ddd76685659 *gd1981-05-09s1t08.flac
8363fef3a349cc3bf3386683ad5e44c4 *gd1981-05-09s1t09.flac
7eb6c343b21ec3fb3a3d3b99fc38cf3a *gd1981-05-09s1t10.flac
e4f9a912084c22905afa47f5e26de3ca *gd1981-05-09s1t11.flac
332fd41589c568da98be4924f15cf2f3 *gd1981-05-09s1t12.flac
621a8e9050f9d803249543ae475a5b36 *gd1981-05-09s2t01.flac
3e15ce4ccfd95176721977b4f298f75c *gd1981-05-09s2t02.flac
13f25b681e3e21bfaaf0f3e7867f67bd *gd1981-05-09s2t03.flac
fd4a691c0028c4ff1b38e872d0adf56e *gd1981-05-09s2t04.flac
ae3aa0b9025836b332393af458105861 *gd1981-05-09s2t05.flac
ee9866c60b9ba08af06df32f1902764f *gd1981-05-09s2t06.flac
b717f59fa906966e52eec63853cf5624 *gd1981-05-09s2t07.flac
34c2e842b9893ac1f1f1ad5fa11aac22 *gd1981-05-09s2t08.flac
0a8430e59799d8a830779a7a10d0ef8d *gd1981-05-09s2t09.flac
11cc1fd17509e63019e93f740bd75de2 *gd1981-05-09s2t10.flac
fdac92a5daf5cf7ff3b946986d5043d0 *gd1981-05-09s2t11.flac
ba990e0261ad4470fa81722c230598ed *gd1981-05-09s2t12.flac
e5c72ab58c718990b3af783e9067a26f *gd1981-05-09s2t13.flac

Comments
Add Comment
Other Sources (comments)
Recording by Jim Wise. AUD>... (1) Recording by Barry... (2) flac16;Recording By... (0) flac16; SBD ->... (0) flac16; MATRIX MIX:... (0) flac16; Matrix of... (1) flac24; Sennheiser... (0) flac16; source: aud... (0) flac24; source: aud... (0)
Date User Comment
12/11/2016 Wharfrat73 Updated .md5 file at the seeder's request.