Browse Collections Artists Sources   Search Dates

Add Show    List Management    Help


Grateful Dead 08/10/82
University of Iowa, Iowa City, IA
Comments Add Comment    Source Collectors    Add to Collection    Add to Want List    History
Source # 137540 Other Sources
Entered by Matt Vernon
Checksums flac-md5 , ffp
Disc Counts 0 / 0
Media Size
Uncompressed: 1.84 GB (1980260796 bytes)
Date Circulated
Date Added
01/11/2017
01/11/2017
Source Summary flac16; Source: Audience Recording > AKG CE-1 mics > Uher Cr-240 > master cassette; Taped by Jim Mance; Transfer: master cassette > Nakamichi Dragon > Sony R700 DAT > Sony PCM p-700 DAT @ 44.1k > Digital Audio Labs Card Deluxe > wav 16/44.1 by Jim Wise; Lineage: wav 16/44.1 > Adobe Audition 3.0.1 > iZotope RX4 Advanced > iZotope Ozone 5 Advanced > CD Wave > TLH > Flac16; edited by SIRMick 
  Archive
Source Information - Download Text | Download Zip
Grateful Dead
University Of Iowa Fieldhouse
Iowa City, IA
August 10, 1982


Source: Audience Recording > AKG CE-1 mics > Uher Cr-240 > master cassette
        Taped by Jim Mance

Transfer: master cassette > Nakamichi Dragon > Sony R700 DAT > Sony PCM p-700 DAT @ 44.1k >
          Digital Audio Labs Card Deluxe > wav 16/44.1
          Jim Wise

Lineage: wav 16/44.1 > Adobe Audition 3.0.1 > iZotope RX4 Advanced > iZotope Ozone 5 Advanced >
         CD Wave > TLH > Flac16




Set I

01   tuning
02   Feel Like A Stranger
03   tuning
04   Friend Of The Devil
05   New Minglewood Blues
06   Tennessee Jed
07   tuning
08   Cassidy
09   tuning
10   It Must Have Been The Roses
11   technical problems
12   On The Road Again >
13   Beat It On Down The Line
14   tuning
15   Stagger Lee
16   tuning
17   I Need A Miracle >
18   Bertha


Set II

01   tuning
02   China Cat Sunflower >
03   I Know You Rider
04   tuning
05   Lost Sailor >
06   Saint Of Circumstance >
07   Eyes Of The World >
08   Drums >
09   Space >
10   Iko Iko >
11   Truckin' >
12   Stella Blue >
13   Sugar Magnolia


encore

14   It's All Over Now, Baby Blue >
15   Johnny B. Goode



Comments:

- This recording has previously been incorrectly attributed to Jim's younger brother Kenny.


Notes:

- Tape flips during "Drums" and "Sugar Magnolia" have been patched with SBD > Cassette Master > Dat seeded by Charlie Miller.



Thanks to the late Jim Mance, for his exceptional capture, and Jim Wise for the transfer



edited and mastered
SIRMick
January 2017


shntool output:

    length     expanded size    cdr  WAVE problems  fmt   ratio  filename
     0:24.22        4285388 B   ---   --   ---xx   flac  0.5193  gd1982-08-10s1t01.flac
     8:02.59       85163612 B   ---   --   ---xx   flac  0.6149  gd1982-08-10s1t02.flac
     1:47.29       18943052 B   ---   --   ---xx   flac  0.4802  gd1982-08-10s1t03.flac
     8:21.47       88486988 B   ---   --   ---xx   flac  0.5905  gd1982-08-10s1t04.flac
     7:42.02       81501548 B   ---   --   ---xx   flac  0.6055  gd1982-08-10s1t05.flac
     8:31.72       90309788 B   ---   --   ---xx   flac  0.5955  gd1982-08-10s1t06.flac
     1:16.61       13549916 B   ---   --   ---xx   flac  0.4733  gd1982-08-10s1t07.flac
     6:17.10       66526364 B   ---   --   ---xx   flac  0.5979  gd1982-08-10s1t08.flac
     1:21.67       14446028 B   ---   --   ---xx   flac  0.4485  gd1982-08-10s1t09.flac
     5:20.63       56596220 B   ---   --   ---xx   flac  0.5375  gd1982-08-10s1t10.flac
     5:40.60       60117164 B   ---   --   ---xx   flac  0.4641  gd1982-08-10s1t11.flac
     2:56.22       31098188 B   ---   --   ---xx   flac  0.5849  gd1982-08-10s1t12.flac
     3:32.55       37526204 B   ---   --   ---xx   flac  0.6108  gd1982-08-10s1t13.flac
     1:32.40       16322924 B   ---   --   ---xx   flac  0.4352  gd1982-08-10s1t14.flac
     5:58.32       63226508 B   ---   --   ---xx   flac  0.5898  gd1982-08-10s1t15.flac
     1:37.64       17261372 B   ---   --   ---xx   flac  0.4460  gd1982-08-10s1t16.flac
     3:43.72       39506588 B   ---   --   ---xx   flac  0.5965  gd1982-08-10s1t17.flac
     6:17.42       66601628 B   ---   --   ---xx   flac  0.6111  gd1982-08-10s1t18.flac
     0:18.18        3217580 B   ---   --   ---xx   flac  0.4440  gd1982-08-10s2t01.flac
     7:09.33       75753260 B   ---   --   ---xx   flac  0.5841  gd1982-08-10s2t02.flac
     5:44.44       60785132 B   ---   --   ---xx   flac  0.6072  gd1982-08-10s2t03.flac
     2:41.55       28529804 B   ---   --   ---xx   flac  0.4779  gd1982-08-10s2t04.flac
     6:33.59       69464012 B   ---   --   ---xx   flac  0.5523  gd1982-08-10s2t05.flac
     6:53.36       72937916 B   ---   --   ---xx   flac  0.6040  gd1982-08-10s2t06.flac
    12:58.54      137366252 B   ---   --   ---xx   flac  0.6164  gd1982-08-10s2t07.flac
     7:48.52       82677548 B   ---   --   ---xx   flac  0.5487  gd1982-08-10s2t08.flac
     8:48.32       93214508 B   ---   --   ---xx   flac  0.4890  gd1982-08-10s2t09.flac
     9:32.71      101067836 B   ---   --   ---xx   flac  0.6365  gd1982-08-10s2t10.flac
     6:36.40       69948524 B   ---   --   ---xx   flac  0.6337  gd1982-08-10s2t11.flac
     8:33.24       90549692 B   ---   --   ---xx   flac  0.5302  gd1982-08-10s2t12.flac
    11:52.08      125615660 B   ---   --   ---xx   flac  0.6398  gd1982-08-10s2t13.flac
     6:43.41       71185676 B   ---   --   ---xx   flac  0.5839  gd1982-08-10s2t14.flac
     4:23.36       46477916 B   ---   --   ---xx   flac  0.6347  gd1982-08-10s2t15.flac
   187:05.72     1980260796 B                            0.5807  (33 files)


Show Checksums
flac-md5
fe22132958639c08cd2ebd9368034246 *gd1982-08-10s1t01.flac
ecabcbd73ff0b31c8634ff21b36e2b7f *gd1982-08-10s1t02.flac
33ac09bafa1c5cf8bd4b732040caa7c2 *gd1982-08-10s1t03.flac
3a7341b4032a7691c762932b44131fae *gd1982-08-10s1t04.flac
f4967296cb73b088f5629c5b8e87086e *gd1982-08-10s1t05.flac
553975f96ab5f079641e57fd123d3099 *gd1982-08-10s1t06.flac
c8506bf59908d6d6994dab17e23e176f *gd1982-08-10s1t07.flac
5585c2151cf94b32251ed38f91e6bbbc *gd1982-08-10s1t08.flac
634af348ab37533f23e782d98ed30d05 *gd1982-08-10s1t09.flac
1614294ae1d4724c1f826ebd07fce619 *gd1982-08-10s1t10.flac
68fac0784a04937270d2a99a611d2914 *gd1982-08-10s1t11.flac
34b0951c2fcbbc2cdaf297a99da37a1c *gd1982-08-10s1t12.flac
78f5e187223dab507c0a04ade8ea28ba *gd1982-08-10s1t13.flac
7bf9e0660d039d339a720f678204dba7 *gd1982-08-10s1t14.flac
111fd1a737be03eb7be22342290e64c2 *gd1982-08-10s1t15.flac
badc46e298ff93a6dc29ec473ccca982 *gd1982-08-10s1t16.flac
a81b62bbc4812f3428b27937040c0ba8 *gd1982-08-10s1t17.flac
1af9f22f8123b6f280291679ac27e397 *gd1982-08-10s1t18.flac
240e42b6076290692b70f1cfe825dadd *gd1982-08-10s2t01.flac
b4ad10b13dd8e67eb461028f3e124890 *gd1982-08-10s2t02.flac
10a4d144741f6352857a333eb850764b *gd1982-08-10s2t03.flac
3d630f325e6c5e98a1f03a927d2577f0 *gd1982-08-10s2t04.flac
9e2e6c2fcbbccc07985e313b1e346f86 *gd1982-08-10s2t05.flac
c5dc6c97799727b23d3b0373f997c06d *gd1982-08-10s2t06.flac
1ca84247e406c07ee931dcbc33643075 *gd1982-08-10s2t07.flac
6ccad6e1bac7a729e9eebb9d31eaebfd *gd1982-08-10s2t08.flac
3250ec0ee549308a02b0ff9262cd01d2 *gd1982-08-10s2t09.flac
1d7d0a70f5bdc0c427e4a1719cbdd32d *gd1982-08-10s2t10.flac
b5e1afd90cc9a2d5214e663d11068f40 *gd1982-08-10s2t11.flac
5cb3184e9a4a225e857ebff1620f7cbd *gd1982-08-10s2t12.flac
a84c882a9b536c02b2b8bf91abb670f3 *gd1982-08-10s2t13.flac
9952fcd4358a3fd22ec883ffe16c9df8 *gd1982-08-10s2t14.flac
add39198354cd06b10660045a172de35 *gd1982-08-10s2t15.flac
ffp
gd1982-08-10s1t01.flac:8d757da3ab1676be709616704d51b863
gd1982-08-10s1t02.flac:4da2ca237e48a8e54a9965cdf91a8ce9
gd1982-08-10s1t03.flac:1e2b7948cf2609307831e8253881a19f
gd1982-08-10s1t04.flac:87a3ec623e3a5e9c0203b3cbe4023afd
gd1982-08-10s1t05.flac:2fbc6feadf1e95f6af913eab2ea1084a
gd1982-08-10s1t06.flac:a91f9e0d1b0dbf478b7e7161e7c574f5
gd1982-08-10s1t07.flac:9443a8eed44e4c5fc9fd1b2b98c5efdf
gd1982-08-10s1t08.flac:a088c841c202781207f0bd6f6a75ae4c
gd1982-08-10s1t09.flac:77c28c0371fca811a1a702138cb400a4
gd1982-08-10s1t10.flac:d0db420742151d5cb97cce4fd141d75b
gd1982-08-10s1t11.flac:d716ee6f4069109955945fb8970e47c5
gd1982-08-10s1t12.flac:16b62decd90ee6e56a21c7a03a403b7a
gd1982-08-10s1t13.flac:901b8f2f385965ea2f631abcd4ce0e60
gd1982-08-10s1t14.flac:40db7bcdad7e8389b61215ccd27cccd4
gd1982-08-10s1t15.flac:0d25dff863ff9fc3e12304be93002deb
gd1982-08-10s1t16.flac:52f24a7ffc2959dbca5ecb8db3b010af
gd1982-08-10s1t17.flac:d4ecb33703e64cdae0cc3b3f8b0a0afc
gd1982-08-10s1t18.flac:5f3d376215da6a28f81bba1425683e74
gd1982-08-10s2t01.flac:c4eb9fe4137734250c6ee1fe1e5f9110
gd1982-08-10s2t02.flac:7feee5fb1c6199027cb785715930b179
gd1982-08-10s2t03.flac:9e2fa0392cd0a098b3dfe9fa7bec129d
gd1982-08-10s2t04.flac:c37f4ac1926aaf3b164ba15635f831f5
gd1982-08-10s2t05.flac:848499920d162e9e93c2113a6cb23931
gd1982-08-10s2t06.flac:295dd8093b8292ebf9cae9db567977f0
gd1982-08-10s2t07.flac:19aab528cd6c96b97eaec38f75db23b0
gd1982-08-10s2t08.flac:a0d5f0783c973ab5dbcdc4f3b41a9e89
gd1982-08-10s2t09.flac:22c5022b184bd69f5e1233135dd26832
gd1982-08-10s2t10.flac:98b617ed07c761a2883b346253857932
gd1982-08-10s2t11.flac:1e93dca919343648b11ffb9cfac9945a
gd1982-08-10s2t12.flac:0eea121a3300ae1c4e13f9e8366952f1
gd1982-08-10s2t13.flac:c747f2b9a1336b4d1dc39f944c301556
gd1982-08-10s2t14.flac:6143568c827bf53be513cc605775f6f0
gd1982-08-10s2t15.flac:10094fe824f73f116fc675f599db0e6d

Comments
Add Comment
Other Sources (comments)
SBD > Master Cassette > DAT... (0) SBD -> Cm -> Dat ->... (2) flac16; AKG CE-1... (0) MATRIX MIX: 50% AUD/50% SBD... (0) flac16; MATRIX MIX:... (8) flac16; Recording... (0) flac16; Matrix by... (0) flac24; Source:... (0) flac16; Source Info:... (0) flac24; Source Info:... (0)
Date User Comment