Browse Collections Artists Sources   Search Dates

Add Show    List Management    Help


Grateful Dead 12/29/88
Oakland-Alameda County Coliseum, Oakland, CA
Comments Add Comment    Source Collectors    Add to Collection    Add to Want List    History
Source # 137692 Other Sources
Entered by Matt Vernon
Checksums flac-md5 , ffp
Disc Counts 0 / 0
Media Size Compressed: 891.47 MB (934772736 bytes)
Date Circulated
Date Added
02/01/2017
01/31/2017
Source Summary flac16; Healy Matrix -> Beta; Sony L-750ESX-HFB Dynamicron EXCELLENT SUPER HIFI VIDEO CASSETTE-> Sony SLO-1800 STEREO VIDEOCASSETTE RECORDER-> Sony PCM-601ESD DIGITAL AUDIO PROCESSOR-> SP/DIF-> Mytek Stereo 192 Sample Rate Converter-> Upsampled to 44.1kHz/24bit-> SP/DIF-> RME FIREFACE 800-> FireWire 400-> Lenovo K450e Desktop PC-> WaveLab 6.11; Editing and Mastering by Jamie Waddell in Wavelab7; Audition CC 2015 Mastering and Patching by Jason Chastain; Critical Listening Assistance and Track, FLAC, Pack by Norm 
  Archive
Source Information - Download Text | Download Zip
Grateful Dead
Thursday, December 29, 1988
Oakland Coliseum Arena
Oakland, CA

Healy Matrix -> Beta

Sony L-750ESX-HFB Dynamicron EXCELLENT SUPER HIFI VIDEO CASSETTE->
Sony SLO-1800 STEREO VIDEOCASSETTE RECORDER->
Sony PCM-601ESD DIGITAL AUDIO PROCESSOR-> SP/DIF->
Mytek Stereo 192 Sample Rate Converter-> Upsampled to 44.1kHz/24bit-> SP/DIF->
RME FIREFACE 800-> FireWire 400-> Lenovo K450e Desktop PC-> WaveLab 6.11

This recording was gratefully supplied by PO and Stucco TINA Holmes.
Thanks to spamjam for the equipment generosity.

Editing and Mastering by Jamie Waddell in Wavelab7
Audition CC 2015 Mastering and Patching by Jason Chastain
Critical Listening Assistance and Track, FLAC, Pack by Norm

16 bit 44.1kHz
a project **GEMS** Betamania Release February 1, 2017


--Set 1--
01 tuning
02 Hell In A Bucket >
03 Sugaree
04 tuning
05 Minglewood Blues
06 tuning
07 Friend OF The Devil
08 tuning
09 Queen Jane
10 tuning
11 To Lay Me Down >
12 Let It Grow

--Set 2--
13 tuning
14 Playin' In The Band >
15 Crazy Fingers >
16 Samson and Delilah >
17 Playin' (reprise) >
18 Eyes Of The World >
19 Drums >
20 Space >
21 The Other One >
22 Stella Blue >
23 Throwing Stones >
24 Not Fade Away >
25 NFA chant - tuning
Encore:
26 The Mighty Quinn

originally shared at www.shnflac.net

    length     expanded size    cdr  WAVE problems  fmt   ratio  filename
     4:42.27       49808348 B   ---   --   ---xx   flac  0.4088  gd1988-12-29s1t01.flac
     6:09.27       65155148 B   ---   --   ---xx   flac  0.6088  gd1988-12-29s1t02.flac
     9:39.31      102208556 B   ---   --   ---xx   flac  0.5762  gd1988-12-29s1t03.flac
     2:00.58       21304460 B   ---   --   ---xx   flac  0.3715  gd1988-12-29s1t04.flac
     7:19.24       77496092 B   ---   --   ---xx   flac  0.6107  gd1988-12-29s1t05.flac
     1:52.26       19817996 B   ---   --   ---xx   flac  0.3662  gd1988-12-29s1t06.flac
     7:58.07       84335708 B   ---   --   ---xx   flac  0.5752  gd1988-12-29s1t07.flac
     1:05.28       11531900 B   ---   --   ---xx   flac  0.3746  gd1988-12-29s1t08.flac
     5:55.56       62753756 B   ---   --   ---xx   flac  0.5883  gd1988-12-29s1t09.flac
     1:24.27       14881148 B   ---   --   ---xx   flac  0.3702  gd1988-12-29s1t10.flac
     7:13.60       76522364 B   ---   --   ---xx   flac  0.5083  gd1988-12-29s1t11.flac
    12:46.50      135240044 B   ---   --   ---xx   flac  0.6001  gd1988-12-29s1t12.flac
     0:59.43       10508780 B   ---   --   ---xx   flac  0.3703  gd1988-12-29s2t01.flac
     7:58.21       84368636 B   ---   --   ---xx   flac  0.5902  gd1988-12-29s2t02.flac
     8:03.64       85351772 B   ---   --   ---xx   flac  0.5426  gd1988-12-29s2t03.flac
     8:12.36       86873516 B   ---   --   ---xx   flac  0.6205  gd1988-12-29s2t04.flac
     3:13.35       34127564 B   ---   --   ---xx   flac  0.5254  gd1988-12-29s2t05.flac
     8:26.69       89420732 B   ---   --   ---xx   flac  0.5796  gd1988-12-29s2t06.flac
     8:37.51       91318796 B   ---   --   ---xx   flac  0.5095  gd1988-12-29s2t07.flac
     6:48.31       72044156 B   ---   --   ---xx   flac  0.4658  gd1988-12-29s2t08.flac
     7:02.06       74454956 B   ---   --   ---xx   flac  0.5715  gd1988-12-29s2t09.flac
     7:27.32       78926108 B   ---   --   ---xx   flac  0.5086  gd1988-12-29s2t10.flac
     9:15.12       97930268 B   ---   --   ---xx   flac  0.5855  gd1988-12-29s2t11.flac
     7:00.10       74111564 B   ---   --   ---xx   flac  0.5848  gd1988-12-29s2t12.flac
     2:08.19       22623932 B   ---   --   ---xx   flac  0.4233  gd1988-12-29s2t13.flac
     5:18.40       56189012 B   -b-   --   ---xx   flac  0.5833  gd1988-12-29s2t14.flac
   158:39.65     1679305312 B                            0.5515  (26 files)



Show Checksums
flac-md5
607dad20b13c2def5be72f5585863bb8 *gd1988-12-29s1t01.flac
554cbb7a4768b212f1cd4e5b3b031863 *gd1988-12-29s1t02.flac
193ad5517865f38f4026a07ce93dd8f2 *gd1988-12-29s1t03.flac
0316809da852d7770117077e1f4c8dfd *gd1988-12-29s1t04.flac
7a39921f5dc15960816e1689c293509d *gd1988-12-29s1t05.flac
a1580e41b4fe753ddfb73a3cd43bcd87 *gd1988-12-29s1t06.flac
1e29690576d70aa8e042abd5998b6764 *gd1988-12-29s1t07.flac
b8a3d09500d1b672eda9935cd4ea9350 *gd1988-12-29s1t08.flac
bc5b638a4f420da49e829c3ca9d7899f *gd1988-12-29s1t09.flac
100af1912b9f83c1e6e0f3a02ff6e6f3 *gd1988-12-29s1t10.flac
5ca1bc0190aba89b2b0fb3a733addbf5 *gd1988-12-29s1t11.flac
342caacb34eedae731a680365d521a87 *gd1988-12-29s1t12.flac
7d029291bc1c548d596b9b8494b0f999 *gd1988-12-29s2t01.flac
647d8d391e780d9d6f6a4db9fcef1b31 *gd1988-12-29s2t02.flac
ea83295f4cf6f49c718557eeefa67cd9 *gd1988-12-29s2t03.flac
8f54943b95627c0c1db91b69203222bd *gd1988-12-29s2t04.flac
e8e5cebf7f9acc6b901d3b431caaacc5 *gd1988-12-29s2t05.flac
1bd592e63b1ddc4470f6e806e24f1050 *gd1988-12-29s2t06.flac
8c05d45aaf6d4a8a7173d9a84d3aee44 *gd1988-12-29s2t07.flac
71aa40c01970bc621bfa8e70d3b27794 *gd1988-12-29s2t08.flac
e67491d03842abcee9bef4ed21a1372a *gd1988-12-29s2t09.flac
12d757719bf6dd91ef608ef92709167d *gd1988-12-29s2t10.flac
ce079b02f805a9c380da02f44f9dd965 *gd1988-12-29s2t11.flac
55199321d6092929ec4f326346fdf07f *gd1988-12-29s2t12.flac
31c87df47871ca71efec3da447096031 *gd1988-12-29s2t13.flac
7c3aa143590f5bb0297295af4424846e *gd1988-12-29s2t14.flac
ffp
gd1988-12-29s1t01.flac:9ba487165c448bb91dec019ee16278d0
gd1988-12-29s1t02.flac:4f7dac441ff20cfa7adb355d1eca70f9
gd1988-12-29s1t03.flac:85461645b1c238e183d9ec1d7f2eaeb2
gd1988-12-29s1t04.flac:6761b87c4299ba9d204987ca151c37a4
gd1988-12-29s1t05.flac:232e1fe300101c8fe83f9908393b6e32
gd1988-12-29s1t06.flac:180111e6ae6d27ec9ba6ada6ef6a1816
gd1988-12-29s1t07.flac:c1468a339a4d43ff0e5301c5b8b90d31
gd1988-12-29s1t08.flac:d8a6f7d5dd62cc9f6a0a55bc11cffbd2
gd1988-12-29s1t09.flac:3bb6910d008fad153a63941428385056
gd1988-12-29s1t10.flac:9e0b604ce58e3bf8a6383c89ee3f3d9b
gd1988-12-29s1t11.flac:a0887ca8669d319bff8377d3494f4270
gd1988-12-29s1t12.flac:65057b89238f88100bb114b31760a595
gd1988-12-29s2t01.flac:d04a0bd1b18afdedbb88862106fbb523
gd1988-12-29s2t02.flac:73de0e966c39b8af4f9422096649bddd
gd1988-12-29s2t03.flac:24ae480604914ed310405a3ca9343d82
gd1988-12-29s2t04.flac:dda762a2fe150bfc9849bb121ee5d0cf
gd1988-12-29s2t05.flac:f705e1fe3074e8b46a06487e036b07ba
gd1988-12-29s2t06.flac:0e3d079cdd837bed9807d06576a46801
gd1988-12-29s2t07.flac:7008aadb986331d02dd66eab218a8318
gd1988-12-29s2t08.flac:6113077ffd2471e77f386cfce3f7f0a2
gd1988-12-29s2t09.flac:e2f738a61265379ac30feb922be33c7f
gd1988-12-29s2t10.flac:6d80040f4834bff887a9a61a3f755d9d
gd1988-12-29s2t11.flac:e0e4416d367306a41843960fa058940d
gd1988-12-29s2t12.flac:a183f3757ff9976a147620dc8f3d0c01
gd1988-12-29s2t13.flac:5646ca16480e140d9aafb1a4ac806d23
gd1988-12-29s2t14.flac:c42dda644bd00776b88b74add155b618

Comments
Add Comment
Other Sources (comments)
sbd> dats> wav> shn; dat>... (0) Ultra-Matrix... (3) flac16; 2 Nak 100's... (0) flac16; Recording... (0) flac16; Source Info:... (0)
Date User Comment