Browse Collections Artists Sources   Search Dates

Add Show    List Management    Help


Grateful Dead 07/10/81
St. Paul Civic Center, St. Paul, MN
Comments Add Comment    Source Collectors    Add to Collection    Add to Want List    History
Source # 137693 Other Sources
Entered by Matt Vernon
Checksums flac-md5 , ffp
Disc Counts 0 / 0
Media Size Compressed: 1.2 GB (1291882496 bytes)
Uncompressed: 1.64 GB (1759194694 bytes)
Date Circulated
Date Added
01/31/2017
01/31/2017
Source Summary flac24; 2nd Set AUD: Nakamichi CM-700's > lead deck > Sony TC-D5 > TDK MA-Metal, FOB recording by Brian Schley. Transfer: MAC > Nakamichi CR-5A > Edirol FA-66 > Wavelab 2448 > CD-Wave (24bit output) > TLH > FLAC 2448 tagged. Transferred by Andrew F. 01/2017 
  Archive
Source Information - Download Text | Download Zip
GRATEFUL DEAD
Civic Center Arena
Saint Paul MN
07-10-1981
Second Set

24bit/48kHz file-set

s2t01 Samson & Delilah
s2t02 Althea
s2t03 Estimated Prophet >
s2t04 Eyes of the World >
s2t05 Drums >
s2t06 Space >
s2t07 Uncle John's Band >
s2t08 Playin' in the Band >
s2t09 China Doll >
s2t10 Uncle John's Band Reprise >
s2t11 Playin' in the Band Reprise >
s2t12 Around & Around >
s2t13 Good Lovin'
s2t14 Encore: Casey Jones

AUD: Nakamichi CM-700's > lead deck > Sony TC-D5 > TDK MA-Metal,
FOB recording by Brian Schley.

Transfer: MAC > Nakamichi CR-5A > Edirol FA-66 > Wavelab 2448 >
CD-Wave (24bit output) > TLH > FLAC 2448 tagged. Transferred by
Andrew F. 01/2017

Note: Very nice FOB tape, unfortunately there is no 1st Set MAC
at this time. 24-bit audio from the ID-135490 source MAC covers
first thirty-five seconds of Samson, nine seconds of tape damage
in Estimated, and some of Drums. Another four minutes of Drums
(upsampled) covered by ID-14195. P.A. static at start of Samson.
Thanks Jon Pasternak & Charlie McGuth for organizing this project!

    length     expanded size    cdr  WAVE problems  fmt   ratio  filename
     8:09.320     140924204 B   cxx   --   ---xx   flac  0.7419  gd1981-07-10s2t01.flac
     8:43.907     150885164 B   cxx   --   ---xx   flac  0.7385  gd1981-07-10s2t02.flac
    11:09.387     192783404 B   cxx   --   ---xx   flac  0.7358  gd1981-07-10s2t03.flac
    15:01.293     259572524 B   cxx   --   ---xx   flac  0.7452  gd1981-07-10s2t04.flac
    11:42.293     202260524 B   cxx   --   ---xx   flac  0.7146  gd1981-07-10s2t05.flac
     5:53.227     101729324 B   cxx   --   ---xx   flac  0.7031  gd1981-07-10s2t06.flac
     7:38.520     132053804 B   cxx   --   ---xx   flac  0.7393  gd1981-07-10s2t07.flac
     6:37.467     114470444 B   cxx   --   ---xx   flac  0.7339  gd1981-07-10s2t08.flac
     5:43.760      99002924 B   cxx   --   ---xx   flac  0.7208  gd1981-07-10s2t09.flac
     1:07.360      19399724 B   cxx   --   ---xx   flac  0.7471  gd1981-07-10s2t10.flac
     2:35.760      44858924 B   cxx   --   ---xx   flac  0.7371  gd1981-07-10s2t11.flac
     3:54.000      67392044 B   cxx   --   ---xx   flac  0.7385  gd1981-07-10s2t12.flac
     7:42.213     133117484 B   cxx   --   ---xx   flac  0.7461  gd1981-07-10s2t13.flac
     5:49.806     100744202 B   cxx   --   ---xx   flac  0.7433  gd1981-07-10s2t14.flac
   101:48.313    1759194694 B                            0.7343  (14 files)

No errors occured.



Show Checksums
flac-md5
ec477518fcf8589f1bfb4e8a0f956839 *gd1981-07-10s2t01.flac
b6476543ece096223a0013e5db78535d *gd1981-07-10s2t02.flac
02f2180f7f55094bc8018dea322c4aba *gd1981-07-10s2t03.flac
1ab536a5acecde4acf3e7150501f700c *gd1981-07-10s2t04.flac
957670057c865c843479ea6dc64bfef9 *gd1981-07-10s2t05.flac
519da925d329db5d538fd166c8f97c00 *gd1981-07-10s2t06.flac
b58e814121373c838fd07ebfe72433b7 *gd1981-07-10s2t07.flac
7c3b5f34ad472ab637a8f17ad3d1e7a0 *gd1981-07-10s2t08.flac
2b22422ab03a8178a9528c98aadb26e2 *gd1981-07-10s2t09.flac
64b3541dbb8dbc7efa19058e36f55604 *gd1981-07-10s2t10.flac
b5cd1e9a2f2f1742e3d6b13eb08fd980 *gd1981-07-10s2t11.flac
3733d9f0b9a6561c88e2b12bf7da4caf *gd1981-07-10s2t12.flac
be4725c529727e5a2a476900be486660 *gd1981-07-10s2t13.flac
1b33eb81677be1153472e7af742b86d5 *gd1981-07-10s2t14.flac
ffp
gd1981-07-10s2t01.flac:2a723f19c43094cecd7a03533236d75d
gd1981-07-10s2t02.flac:9838b8fd7bf2703ad46b8c03b2fc8489
gd1981-07-10s2t03.flac:e25182af4d73fd484525e4c2a4faa492
gd1981-07-10s2t04.flac:bf942c571c3f56405bbab2defd686f44
gd1981-07-10s2t05.flac:3a136e4daf01a85b09dd4f5c416be138
gd1981-07-10s2t06.flac:8bf516a75a08c68a228bb158a7e5dc9e
gd1981-07-10s2t07.flac:ec4b0b1b59b23d1a5eceb8a7fbd36971
gd1981-07-10s2t08.flac:0bb1fefa67687a600410c262e673a594
gd1981-07-10s2t09.flac:2afcfd2a3e8037372edde2fc7b052c77
gd1981-07-10s2t10.flac:d6a256aebe4260475aedf370325a3add
gd1981-07-10s2t11.flac:d37eb24bbc166ada5a44d3400fbf02b3
gd1981-07-10s2t12.flac:0eddba5a1de443cb2e7f00ad377d2595
gd1981-07-10s2t13.flac:9a3ac3e180b08928ceae87ca864b351a
gd1981-07-10s2t14.flac:b22c6262c8fbcc422f1358548b1913e7

Comments
Add Comment
Other Sources (comments)
Originally mislabeled as... (0) Recording by Ohr Weinberg.... (2) flac16; Recording... (0) flac16; AUD: Unknown... (0) flac16; 2nd Set AUD:... (0) flac16/48kHz;... (0)
Date User Comment