Browse Collections Artists Sources   Search Dates

Add Show    List Management    Help


Grateful Dead 07/10/81
St. Paul Civic Center, St. Paul, MN
Comments Add Comment    Source Collectors    Add to Collection    Add to Want List    History
Source # 137694 Other Sources
Entered by Matt Vernon
Checksums flac-md5 , ffp
Disc Counts 0 / 0
Media Size Compressed: 626.05 MB (656461824 bytes)
Uncompressed: 1 GB (1077508264 bytes)
Date Circulated
Date Added
01/31/2017
01/31/2017
Source Summary flac16; 2nd Set AUD: Nakamichi CM-700's > lead deck > Sony TC-D5 > TDK MA-Metal, FOB recording by Brian Schley. Transfer: MAC > Nakamichi CR-5A > Edirol FA-66 > Wavelab 2448 > CD-Wave (24bit output) > R8Brain SRC > TLH > FLAC 1644 tagged. Transferred by Andrew F. 01/2017 
  Archive
Source Information - Download Text | Download Zip
GRATEFUL DEAD
Civic Center Arena
Saint Paul MN
07-10-1981
Second Set

16bit/44.1kHz file-set

s2t01 Samson & Delilah
s2t02 Althea
s2t03 Estimated Prophet >
s2t04 Eyes of the World >
s2t05 Drums >
s2t06 Space >
s2t07 Uncle John's Band >
s2t08 Playin' in the Band >
s2t09 China Doll >
s2t10 Uncle John's Band Reprise >
s2t11 Playin' in the Band Reprise >
s2t12 Around & Around >
s2t13 Good Lovin'
s2t14 Encore: Casey Jones

AUD: Nakamichi CM-700's > lead deck > Sony TC-D5 > TDK MA-Metal,
FOB recording by Brian Schley.

Transfer: MAC > Nakamichi CR-5A > Edirol FA-66 > Wavelab 2448 >
CD-Wave (24bit output) > R8Brain SRC > TLH > FLAC 1644 tagged.
Transferred by Andrew F. 01/2017

Note: Very nice FOB tape, unfortunately there is no 1st Set MAC
at this time. 24-bit audio from the ID-135490 source MAC covers
first thirty-five seconds of Samson, nine seconds of tape damage
in Estimated, and some of Drums. Another four minutes of Drums
(upsampled) covered by ID-14195. P.A. static at start of Samson.
Thanks Jon Pasternak & Charlie McGuth for organizing this project!

    length     expanded size    cdr  WAVE problems  fmt   ratio  filename
     8:09.24       86316092 B   ---   --   ---xx   flac  0.6211  gd1981-07-10s2t01.flac
     8:43.68       92417180 B   ---   --   ---xx   flac  0.6154  gd1981-07-10s2t02.flac
    11:09.29      118079852 B   ---   --   ---xx   flac  0.6105  gd1981-07-10s2t03.flac
    15:01.22      158988188 B   ---   --   ---xx   flac  0.6262  gd1981-07-10s2t04.flac
    11:42.22      123884588 B   ---   --   ---xx   flac  0.5818  gd1981-07-10s2t05.flac
     5:53.17       62309228 B   ---   --   ---xx   flac  0.5582  gd1981-07-10s2t06.flac
     7:38.39       80882972 B   ---   --   ---xx   flac  0.6166  gd1981-07-10s2t07.flac
     6:37.35       70113164 B   ---   --   ---xx   flac  0.6080  gd1981-07-10s2t08.flac
     5:43.57       60639308 B   ---   --   ---xx   flac  0.5866  gd1981-07-10s2t09.flac
     1:07.27       11882348 B   ---   --   ---xx   flac  0.6288  gd1981-07-10s2t10.flac
     2:35.57       27476108 B   ---   --   ---xx   flac  0.6128  gd1981-07-10s2t11.flac
     3:54.00       41277644 B   ---   --   ---xx   flac  0.6144  gd1981-07-10s2t12.flac
     7:42.16       81534476 B   ---   --   ---xx   flac  0.6275  gd1981-07-10s2t13.flac
     5:49.61       61707116 B   ---   --   ---xx   flac  0.6242  gd1981-07-10s2t14.flac
   101:48.24     1077508264 B                            0.6092  (14 files)

No errors occured.



Show Checksums
flac-md5
77a55ddf07f1bc2ac4d7d2e5bc76504f *gd1981-07-10s2t01.flac
c75cc05a5d63c959e0bc7394b478de03 *gd1981-07-10s2t02.flac
858ef6b3d970d639cbdc3be68a83b790 *gd1981-07-10s2t03.flac
abbba357e050b879113c9aa854be6f48 *gd1981-07-10s2t04.flac
f32d97bdcabc8ea740d9e657646ac0fd *gd1981-07-10s2t05.flac
3e62751a21b151b6d21225d9ac6ade62 *gd1981-07-10s2t06.flac
9a60e89fbe994558df4f297d09077838 *gd1981-07-10s2t07.flac
73a3d53f6a43a0e0f10f60e952832e1f *gd1981-07-10s2t08.flac
1db9e3141d6b58c9184134776ba99a1c *gd1981-07-10s2t09.flac
f8df8c0fd81d724660e569065f224e86 *gd1981-07-10s2t10.flac
dbcac5efee72a22b8101337780d75ad1 *gd1981-07-10s2t11.flac
33eb27e284c1e0c61dc23bf5b364170e *gd1981-07-10s2t12.flac
c4b0fab96b578160669f5e783676bea2 *gd1981-07-10s2t13.flac
1265ac24049513537719761faa6b5775 *gd1981-07-10s2t14.flac
ffp
gd1981-07-10s2t01.flac:5e1d92ee475304acce4a1a2ed2ec8b37
gd1981-07-10s2t02.flac:7dbc25a3698814e460e53e743b53a752
gd1981-07-10s2t03.flac:8f65c299bf0d5365f56066aa09b515be
gd1981-07-10s2t04.flac:11bf088f7a61cc81b06fe2c9a5f13b1c
gd1981-07-10s2t05.flac:09dc37f128dd89f6a6e8fb2c2af88294
gd1981-07-10s2t06.flac:667700000e9ec1720a19e638d3eaf171
gd1981-07-10s2t07.flac:81ed82dc1acb20f9b08a5febabe1dbff
gd1981-07-10s2t08.flac:070948d45bcdd2a92e34da82f6ef680e
gd1981-07-10s2t09.flac:7b5f60035a9486109882b3328e0f764d
gd1981-07-10s2t10.flac:8e62e74835776aa60e8d94cef803bcbe
gd1981-07-10s2t11.flac:ea24f297bded3cbfb98ef7ec8bd737c8
gd1981-07-10s2t12.flac:d24f8ce9801d147699d8376658e71187
gd1981-07-10s2t13.flac:e50be82469db59f3201126363f53589a
gd1981-07-10s2t14.flac:5566d0a7d5ab77f83a5e50046b539717

Comments
Add Comment
Other Sources (comments)
Originally mislabeled as... (0) Recording by Ohr Weinberg.... (2) flac16; Recording... (0) flac16; AUD: Unknown... (0) flac24; 2nd Set AUD:... (0) flac16/48kHz;... (0)
Date User Comment