Browse Collections Artists Sources   Search Dates

Add Show    List Management    Help


Garcia 11/06/91
Capital Centre, Landover, MD
Comments Add Comment    Source Collectors    Add to Collection    Add to Want List    History
Source # 137703 Other Sources
Entered by Joe Jupille
Checksums Garcia1991-11-06.ffp , Garcia1991-11-06.md5
Disc Counts 0 / 0
Media Size
Uncompressed: 1.66 GB (1783219948 bytes)
Date Circulated
Date Added
02/02/2017
02/02/2017
Source Summary JGB; flac1648; FOB Schoeps MK4s > Dat (Panasonic SV-255/48k); edited and mastered SIRMick. 
Source Information - Download Text | Download Zip
Jerry Garcia Band
Capital Centre,
Landover, MD
11/06/1991

Source: (FOB) Schoeps MK4s > Dat (Panasonic SV-255/48k)
Transfer : Dat (Sony PCM-R500) > Sound Devices 744T > WAV
Lineage: wav > Adobe Audition 3.0.1 > iZotope RX4 Advanced > iZotope Ozone 5 Advanced > CD Wave > TLH > Flac16

Set I

01   crowd
02   Cats Under The Stars
03   Stop That Train
04   You Never Can Tell (C'est La Vie)
05   Run For The Roses
06   Simple Twist Of Fate
07   Ain't No Bread In The Breadbox
08   My Sisters And Brothers
09   Deal


Set II

01   The Way You Do The Things You Do
02   Waiting For A Miracle
03   Money Honey
04   Shining Star
05   Struggling Man
06   Don't Let Go
07   Everybody Needs Somebody To Love

encore

08   What A Wonderful World


Jerry Garcia - guitar, vocals
John Kahn - bass
Melvin Seals - keyboards
David Kemper - drums
Jaclyn LaBranch - backing vocals
Gloria Jones - backing vocals




Thanks to Charlie Miller for the transfer and passing this source to me.


edited and mastered
SIRMick
January 2017


shntool output:

    length     expanded size    cdr  WAVE problems  fmt   ratio  filename
     0:28.640       5498924 B   cxx   --   ---xx   flac  0.3894  jgb1991-11-06s1t01.flac
    11:25.680     131650604 B   cxx   --   ---xx   flac  0.5027  jgb1991-11-06s1t02.flac
     9:29.040     109255724 B   cxx   --   ---xx   flac  0.4611  jgb1991-11-06s1t03.flac
     8:25.013      96962604 B   cxx   --   ---xx   flac  0.5045  jgb1991-11-06s1t04.flac
     6:35.707      75975724 B   cxx   --   ---xx   flac  0.4955  jgb1991-11-06s1t05.flac
    14:28.960     166840364 B   cxx   --   ---xx   flac  0.4028  jgb1991-11-06s1t06.flac
     7:41.987      88701484 B   cxx   --   ---xx   flac  0.5261  jgb1991-11-06s1t07.flac
     3:57.933      45683244 B   cxx   --   ---xx   flac  0.4697  jgb1991-11-06s1t08.flac
     9:34.027     110213164 B   cxx   --   ---xx   flac  0.5226  jgb1991-11-06s1t09.flac
    13:42.640     157946924 B   cxx   --   ---xx   flac  0.4641  jgb1991-11-06s2t01.flac
     6:03.360      69765164 B   cxx   --   ---xx   flac  0.4969  jgb1991-11-06s2t02.flac
     7:55.733      91340844 B   cxx   --   ---xx   flac  0.4970  jgb1991-11-06s2t03.flac
    11:15.280     129653804 B   cxx   --   ---xx   flac  0.4554  jgb1991-11-06s2t04.flac
     8:13.267      94707244 B   cxx   --   ---xx   flac  0.4776  jgb1991-11-06s2t05.flac
    15:35.907     179694124 B   cxx   --   ---xx   flac  0.4486  jgb1991-11-06s2t06.flac
    13:07.920     151280684 B   cxx   --   ---xx   flac  0.5044  jgb1991-11-06s2t07.flac
     6:46.507      78049324 B   cxx   --   ---xx   flac  0.4283  jgb1991-11-06s2t08.flac
   154:47.600    1783219948 B                            0.4745  (17 files)
Show Checksums
Garcia1991-11-06.ffp
jgb1991-11-06s1t01.flac:c35ee2bef90824c92d4ffe3d1ac3dc8e
jgb1991-11-06s1t02.flac:ce221e07ad9036034b2ba10752d0d775
jgb1991-11-06s1t03.flac:66fd6f1365eba09550f3cad1cec64a4e
jgb1991-11-06s1t04.flac:10f3bed3d8bd1bd7c9060a0839d53f55
jgb1991-11-06s1t05.flac:fa328ab923367e1211be7c7c293ab5b9
jgb1991-11-06s1t06.flac:aae26d5b3fcc213bcb8901b58183027c
jgb1991-11-06s1t07.flac:9e95cbca90077cf6c3dba374a524000a
jgb1991-11-06s1t08.flac:bbcf8991866a44606d41c709840b62d1
jgb1991-11-06s1t09.flac:bcfc080871d02f9fc9243957a5d7ea46
jgb1991-11-06s2t01.flac:9056778f542a87cd8e0078b83fe8cd11
jgb1991-11-06s2t02.flac:590066ac143bd1f5216065bbf9f2c2e5
jgb1991-11-06s2t03.flac:7030d5e4c1ac5cfb66288fe5d61aea66
jgb1991-11-06s2t04.flac:81bb5325f68b3b46b826cf855e52c27c
jgb1991-11-06s2t05.flac:7b456acc77568502b39b6f42d213941a
jgb1991-11-06s2t06.flac:17ef20a40cc5f7f5f6d07ea5fc22c0a1
jgb1991-11-06s2t07.flac:f23b36a9ad0fb65bc061dcc117d48b41
jgb1991-11-06s2t08.flac:25e02db570d029c586a06ee0d03d9f18
Garcia1991-11-06.md5
dd36885469e41130b7574dbb52cdbc84 *jgb1991-11-06s1t01.flac
3436555d81678e02ba5b7151c8d64fd8 *jgb1991-11-06s1t02.flac
e89da3ef43e85079417b1adbe3a2c960 *jgb1991-11-06s1t03.flac
c35ac0bce36e88c803990df32b37a2d8 *jgb1991-11-06s1t04.flac
730461bdca7cc9e103cd2ed99bff6dbc *jgb1991-11-06s1t05.flac
362396460d6ace0927e37a517df584ad *jgb1991-11-06s1t06.flac
d405b63dba32229f7d21aa3fdb140f0c *jgb1991-11-06s1t07.flac
95d3a6c0c9adaf448c2941efb2c0494a *jgb1991-11-06s1t08.flac
92ae5ee12a313825c7b9bf8fa89370c4 *jgb1991-11-06s1t09.flac
236e780c51a3e9eb2dbabc9e93574496 *jgb1991-11-06s2t01.flac
f40a615dd3f298567fd04ec79f002923 *jgb1991-11-06s2t02.flac
641f25267ad7a51168e429bc021ff3d2 *jgb1991-11-06s2t03.flac
b12ff0b9a60db1f36b6f47f54a1ed86b *jgb1991-11-06s2t04.flac
8c8baba3dbc31a0f083a2c4c4593c1c6 *jgb1991-11-06s2t05.flac
64a01eef064310daab14e8723ee35dde *jgb1991-11-06s2t06.flac
97c7efefcae2cd923139375e9af651de *jgb1991-11-06s2t07.flac
cabfe9467244436e995e820d5eea1524 *jgb1991-11-06s2t08.flac

Comments
Add Comment
Other Sources (comments)
Jerry Garcia Band: FOB... (0) JGB: Clay Brennecke's FOB... (1)
Date User Comment