Browse Collections Artists Sources   Search Dates

Add Show    List Management    Help


Garcia 03/07/79
Rancho Nicasio, San Rafael, CA
Comments Add Comment    Source Collectors    Add to Collection    Add to Want List    History
Source # 137716 Other Sources
Entered by Joe Jupille
Checksums Reconstruction1979-03-07.ffp , Reconstruction1979-03-07.md5
Disc Counts 0 / 0
Media Size Compressed: 500.46 MB (524771328 bytes)
Date Circulated
Date Added
02/04/2017
02/03/2017
Source Summary Reconstruction; flac1644; Soundboard; Sony L-750ESX-HFB Dynamicron EXCELLENT SUPER HIFI VIDEO CASSETTE-> Sony SLO-1800 STEREO VIDEOCASSETTE RECORDER-> Sony PCM-601ESD DIGITAL AUDIO PROCESSOR-> SP/DIF-> Mytek Stereo 192 Sample Rate Converter-> Upsampled to 44.1kHz/24bit->SP/DIF-> RME FIREFACE 800-> FireWire 400-> Lenovo K450e Desktop PC-> WaveLab 6.11. Mastering and editing by acetboy on Pro Tools LE. Track, FLAC and Pack by Copperdomebodhi. 16 bit 44.1kHz. a project **GEMS** Betamania Release February 4, 2017 
Source Information - Download Text | Download Zip
Reconstruction
Wednesday, March 07, 1979
Rancho Nicasio
Nicasio, CA

Soundboard

Sony L-750ESX-HFB Dynamicron EXCELLENT SUPER HIFI VIDEO CASSETTE->
Sony SLO-1800 STEREO VIDEOCASSETTE RECORDER->
Sony PCM-601ESD DIGITAL AUDIO PROCESSOR-> SP/DIF->
Mytek Stereo 192 Sample Rate Converter-> Upsampled to 44.1kHz/24bit->SP/DIF->
RME FIREFACE 800-> FireWire 400->
Lenovo K450e Desktop PC-> WaveLab 6.11

Mastering and editing by acetboy on Pro Tools LE.
Track, FLAC and Pack by Copperdomebodhi

16 bit 44.1kHz
a project **GEMS** Betamania Release February 4, 2017

--Set 1--
01 Intro
02 Lovely Night For Dancing
03 Sama Layuca
04 I Just Want to Stop
05 Another Star (Instrumental)
06 Do I Move You?
07 Strugglin' Man
08 Long Train Running (Instrumental)

--Set 2--
09 Intro
10 Don't It Make It Better
11 Soul Roach
12 What You Won't Do For Love
13 Welcome to the Basement
14 Ain't That Lovin' You
15 Lyinda
Encore:
16 It's No Use*

* not on shnid 6364

Jerry Garcia - guitar, vocals
John Kahn - bass
Merl Saunders - keys, vocals
Ed Neumeister - trombone
Ron Stallings - tenor sax, vocals
Gaylord Birch – drums

originally shared at www.shnflac.net

Notes:

- This version has been provided by an anonymous source.

All mastering by acetboy:

A few notes about what I did.

It was only necessary to use 3 short patches from 6364.
Around 08:52 from the start of the show in the first song.  As the show runs now in my new edit.
There is a patch that is only about 1.5 seconds, it's like 1 and half beats long.
Then there is another similar, very short patch in the third song at about 21:27
from the start of the show, my new edit.  It's about 2 beats.

Then the end of the first song in the second set needed a patch of about the last
4 beats and a few seconds of audience applause.

I cut out the various redundant sections.
Messed with the levels here and there.
The third to the last song of the second set suddenly dropped in level at
about the last 30 seconds of music.  And then the last two songs were down
a bit.  So I fixed that.

The whole show has an RMS of -21.2 dB.  No brick wall compression here.
The highest peaks are hitting -0.2 dB and there's only about 6 of them.

    length     expanded size    cdr  WAVE problems  fmt   ratio  filename
     1:06.04       11651852 B   ---   --   ---xx   flac  0.3327  Reconstruction1979-03-07s1t01.flac
     8:54.52       94319948 B   ---   --   ---xx   flac  0.3984  Reconstruction1979-03-07s1t02.flac
     8:13.42       87064028 B   ---   --   ---xx   flac  0.3827  Reconstruction1979-03-07s1t03.flac
     5:12.55       55166204 B   ---   --   ---xx   flac  0.3735  Reconstruction1979-03-07s1t04.flac
    11:06.22      117534188 B   ---   --   ---xx   flac  0.3922  Reconstruction1979-03-07s1t05.flac
    11:34.25      122480444 B   ---   --   ---xx   flac  0.3813  Reconstruction1979-03-07s1t06.flac
     5:57.18       63017180 B   ---   --   ---xx   flac  0.3664  Reconstruction1979-03-07s1t07.flac
    12:48.06      135489356 B   ---   --   ---xx   flac  0.4000  Reconstruction1979-03-07s1t08.flac
     1:00.47       10694588 B   ---   --   ---xx   flac  0.3097  Reconstruction1979-03-07s2t01.flac
     6:24.47       67848188 B   ---   --   ---xx   flac  0.3919  Reconstruction1979-03-07s2t02.flac
     9:03.06       95799356 B   ---   --   ---xx   flac  0.3866  Reconstruction1979-03-07s2t03.flac
     6:01.29       63748652 B   ---   --   ---xx   flac  0.3671  Reconstruction1979-03-07s2t04.flac
    13:14.28      140127500 B   ---   --   ---xx   flac  0.3784  Reconstruction1979-03-07s2t05.flac
     8:29.02       89792348 B   ---   --   ---xx   flac  0.3927  Reconstruction1979-03-07s2t06.flac
     9:14.45       97831484 B   ---   --   ---xx   flac  0.3883  Reconstruction1979-03-07s2t07.flac
     9:01.09       95453612 B   ---   --   ---xx   flac  0.3919  Reconstruction1979-03-07s2t08.flac
   127:21.62     1348018928 B                            0.3854  (16 files)


Show Checksums
Reconstruction1979-03-07.ffp
Reconstruction1979-03-07s1t01.flac:c295a524ce7c66400e66db175c6bc5d6
Reconstruction1979-03-07s1t02.flac:ff334c08a039b7794ee0a4c9fe6e1930
Reconstruction1979-03-07s1t03.flac:052c7c0d36670e39d98bc04dc04150ab
Reconstruction1979-03-07s1t04.flac:4e3b050bb6d9776113c7f66f86ebb067
Reconstruction1979-03-07s1t05.flac:5bdab0a69890754a2323523c0c30554f
Reconstruction1979-03-07s1t06.flac:d89c837dbd8112dfd660e32c1d9c9939
Reconstruction1979-03-07s1t07.flac:8315e560b923ce75f67fee60b0dc3d9e
Reconstruction1979-03-07s1t08.flac:1603a27a8684cd7d485056679cdc650f
Reconstruction1979-03-07s2t01.flac:53c12df17967ace92761292b9f36b694
Reconstruction1979-03-07s2t02.flac:56df626b96678040a04250e31b933c4e
Reconstruction1979-03-07s2t03.flac:b296e1dbb52e0ecb2d549118ab8b2ffe
Reconstruction1979-03-07s2t04.flac:a8128fc59eac2ee6a2af5d9644a01fd4
Reconstruction1979-03-07s2t05.flac:bd3703cd239bf6ed07bc69863a4597f8
Reconstruction1979-03-07s2t06.flac:1205111a4ccd39bd8204162c64af6e8c
Reconstruction1979-03-07s2t07.flac:c2e101fdcc39269381aa3d20e00019d2
Reconstruction1979-03-07s2t08.flac:a2d78dc09ed77b32838e3925ad7e9f08
Reconstruction1979-03-07.md5
46ff4bef6d62132fe33a23254a0b394d *Reconstruction1979-03-07s1t01.flac
38c45c558c7e36760ab3e644ac3384f6 *Reconstruction1979-03-07s1t02.flac
b58124327e73bf02e4e025444d5dcf36 *Reconstruction1979-03-07s1t03.flac
7cdd1f935beefc7fe2af9912691102b9 *Reconstruction1979-03-07s1t04.flac
2eda53551aa3a61487e83ccdab17cd3c *Reconstruction1979-03-07s1t05.flac
1610d3f09a3b7af0e821bbdf5f268880 *Reconstruction1979-03-07s1t06.flac
f789db35eb7febd54997517d34a02f43 *Reconstruction1979-03-07s1t07.flac
ff344da5bdc0f6b8a3c49bf1f6a0ecc2 *Reconstruction1979-03-07s1t08.flac
c2dbe75ed221421ef89f463aa20570ea *Reconstruction1979-03-07s2t01.flac
a8dd76ca855d7340be9d5b6a7e1c2501 *Reconstruction1979-03-07s2t02.flac
a9a006d8b60c57f1e49e85f26ea20b58 *Reconstruction1979-03-07s2t03.flac
cb73fc952b1cd8cb74a0d7b6f8d7539e *Reconstruction1979-03-07s2t04.flac
ae90088d6787f65737d48d02f7a6c754 *Reconstruction1979-03-07s2t05.flac
b904172e10865e7a1aac517900349512 *Reconstruction1979-03-07s2t06.flac
547d74d17ff7df812446b047d8e9add8 *Reconstruction1979-03-07s2t07.flac
069377ca81ca883daf4b1adf21f6fa98 *Reconstruction1979-03-07s2t08.flac

Comments
Add Comment
Other Sources (comments)
Reconstruction: MSR -> PCM... (0) Reconstruction; flac16xx;... (0)
Date User Comment
02/03/2017 jjoops City was given as San Rafael, I changed to Nicasio.