Browse Collections Artists Sources   Search Dates

Add Show    List Management    Help


Ratdog 11/30/95
Ogden Theatre, Denver, CO
Comments Add Comment    Source Collectors    Add to Collection    Add to Want List    History
Source # 137735 Other Sources
Entered by ziko
Checksums ffp , md5
Disc Counts 0 / 0
Media Size Compressed: 538.65 MB (564815462 bytes)
Date Circulated
Date Added
02/06/2017
02/06/2017
Source Summary SBD > Dat Master (44.1k), Dat Master (Sony PCM-R500) > Sound Devices 744T > Samplitude Pro X3 Suite > FLAC (2 Discs Audio / 1 Disc FLAC), Transfers and Mastering By Charlie Miller 
Source Information - Download Text | Download Zip
Ratdog - November 30, 1995
Ogden Theatre - Denver, CO

Recording Info:
SBD > Dat Master (44.1k)

Transfer Info:
Dat Master (Sony PCM-R500) > Sound Devices 744T > Samplitude Pro X3 Suite > FLAC
(2 Discs Audio / 1 Disc FLAC)

All Transfers and Mastering By Charlie Miller
[email protected]
February 6, 2017

Notes:
-- First New Minglewood Blues, Howlin For My Baby and In Dreams

Setlist:
01 - Tuning
02 - Bombs Away >
03 - Take Me To The River
04 - Fever >
05 - Eternity
06 - Twilight Time
07 - K.C. Moan >
08 - When I Paint My Masterpiece
09 - Juke
10 - New Minglewood Blues
11 - Howlin' For My Baby
12 - Wang Dang Doodle
13 - Shoulda Had Been Me >
14 - Easy To Slip >
15 - Bass/Drums >
16 - Victim Or The Crime >
17 - Throwing Stones

Encore:
18 - Every Little Light
19 - In Dreams >
20 - Knockin' On Heaven's Door


SHNTOOL OUTPUT:
    length     expanded size    cdr  WAVE problems  fmt   ratio  filename
     2:29.50       26401244 B   ---   --   ---xx   flac  0.2928  01 Tuning.flac
     5:20.02       56452748 B   ---   --   ---xx   flac  0.4487  02 Bombs Away.flac
     4:21.25       46099244 B   ---   --   ---xx   flac  0.4565  03 Take Me To The River.flac
     4:31.14       47837372 B   ---   --   ---xx   flac  0.3748  04 Fever.flac
     9:09.14       96876572 B   ---   --   ---xx   flac  0.4611  05 Eternity.flac
     3:22.25       35691644 B   ---   --   ---xx   flac  0.4668  06 Twilight Time.flac
     2:56.69       31208732 B   ---   --   ---xx   flac  0.4662  07 KC Moan.flac
     5:31.10       58411964 B   ---   --   ---xx   flac  0.4719  08 When I Paint My Masterpiece.flac
     3:23.57       35943308 B   ---   --   ---xx   flac  0.5108  09 Juke.flac
     6:50.36       72408716 B   ---   --   ---xx   flac  0.4672  10 New Minglewood Blues.flac
     5:19.45       56377484 B   ---   --   ---xx   flac  0.4808  11 Howlin' For My Baby.flac
     6:51.21       72549836 B   ---   --   ---xx   flac  0.4678  12 Wang Dang Doodle.flac
     4:38.45       49145084 B   ---   --   ---xx   flac  0.4398  13 Shoulda Had Been Me.flac
     5:48.28       61453100 B   ---   --   ---xx   flac  0.4572  14 Easy To Slip.flac
    11:49.20      125114684 B   ---   --   ---xx   flac  0.4029  15 Bass_Drums.flac
     6:57.34       73638812 B   ---   --   ---xx   flac  0.4645  16 Victim Or The Crime.flac
     8:28.09       89632412 B   ---   --   ---xx   flac  0.5034  17 Throwing Stones.flac
     4:25.69       46908332 B   ---   --   ---xx   flac  0.3763  18 Every Little Light.flac
     3:04.04       32467052 B   ---   --   ---xx   flac  0.4573  19 In Dreams.flac
     6:20.65       67184924 B   ---   --   ---xx   flac  0.4261  20 Knockin' On Heaven's Door.flac
   111:39.42     1181803264 B                            0.4479  (20 files)


Show Checksums
ffp
01 Tuning.flac:9cbcae6d37baac440d263932c30e2617
02 Bombs Away.flac:c8391ba373fccee897618f3954d49ced
03 Take Me To The River.flac:b3f3ebddf35c3d6bbb5238be9407e20a
04 Fever.flac:63c824acb855ee0470a4e41564890922
05 Eternity.flac:43c672dee851333e1199ded0f20fdab2
06 Twilight Time.flac:294b84554ba090afda1a8bb7f69548f3
07 KC Moan.flac:23452953b59ccdcf5bbda1c0b8d12aef
08 When I Paint My Masterpiece.flac:ae761a581ba606c6274beb9e0d43f03d
09 Juke.flac:952f573a6772c4098b98c2398f6b7905
10 New Minglewood Blues.flac:5330c33b4dd90cffb529c335b717ba3d
11 Howlin' For My Baby.flac:e99a8ce74178b64f574644ff3ff00a96
12 Wang Dang Doodle.flac:0e9d76ed20928045433ce10c26c949bb
13 Shoulda Had Been Me.flac:18be1fd43b4bd0c9b96486918cdea94e
14 Easy To Slip.flac:1a2c16431ada5f2689e9a2fd47fed113
15 Bass_Drums.flac:a193d81f4fd3b4c4c59969da6b3489fa
16 Victim Or The Crime.flac:6041f0d992f0e9bcaf4038712d78ae92
17 Throwing Stones.flac:4d1c7eeb89f3e05679439a7245700297
18 Every Little Light.flac:7cb0cb2a9b46cb594213409ea485de35
19 In Dreams.flac:f2f521fe1657b56e3932281c1346bd28
20 Knockin' On Heaven's Door.flac:703da1018ff4f8adefe3095334040f0d
md5
6307df85856e411d49bf966052b3ab88 *01 Tuning.flac
2f00b4fa5eb2581a433bf45d0cbea8e0 *02 Bombs Away.flac
de1e1c653943846c590dde3a3146b3c6 *03 Take Me To The River.flac
2a99e9d03e70e8aa76a30a14b29b4fe0 *04 Fever.flac
4e54db67778602622c540b39eb1e6c2c *05 Eternity.flac
ff17c6b3be4d48b85239f585a1205516 *06 Twilight Time.flac
a3fbe20016621e8ce3ae7d6d8d7f6f0c *07 KC Moan.flac
1fb391b54004b2233c21d62cccd04386 *08 When I Paint My Masterpiece.flac
3bd4123d450d3026c748ed3433354f49 *09 Juke.flac
6f1316cb11655f1e6356bc7efee8b6c9 *10 New Minglewood Blues.flac
1be6233898b233b761d3666af92c2ed5 *11 Howlin' For My Baby.flac
68b531711285c59f7b4dc8d12dd6ef19 *12 Wang Dang Doodle.flac
7b1c71f10ee3ac71072a24b5a71f1a4d *13 Shoulda Had Been Me.flac
8efc6a5ca9b6fcfb4bda4c4f0f929b50 *14 Easy To Slip.flac
874672f6b1cacaec8c378001c77a17bc *15 Bass_Drums.flac
956e66bd9532cf434c5655fd93cb3dc1 *16 Victim Or The Crime.flac
49c98a9143e6124bde8cc0028f994192 *17 Throwing Stones.flac
0064bfffeb40edb5264f287cfa1bbcce *18 Every Little Light.flac
b3669859c8c66282bdd2a82c4beee9df *19 In Dreams.flac
0bebea6cf0fe3e4592b89232991cff9e *20 Knockin' On Heaven's Door.flac

Comments
Add Comment
Date User Comment