Browse Collections Artists Sources   Search Dates

Add Show    List Management    Help


Grateful Dead 10/31/80
Radio City Music Hall, New York, NY
Comments Add Comment    Source Collectors    Add to Collection    Add to Want List    History
Source # 137839 Other Sources
Entered by Matt Vernon
Checksums ffp , flac-md5
Disc Counts 0 / 0
Media Size
Uncompressed: 0.99 GB (1059832984 bytes)
Date Circulated
Date Added
02/17/2017
02/17/2017
Source Summary flac16; Source: Soundboard (monitor mix) > Sony TC-D5 > cassette (2nd gen); Taped by Happy Jack and friend; Transfer: Cassette > Nakamichi CD1 > Sony PCM-M10 > wav 24/96; Lineage: wav 24/96 > Adobe Audition 3.0.1 > iZotope RX4 Advanced > iZotope 5 Advanced > iZotope RX4 Advanced > wav 16/44.1 > CD Wave > TLH > Flac 16; transferred, edited and mastered SIRMick 
  Archive
Source Information - Download Text | Download Zip
Grateful Dead
Radio City Music Hall
New York City, NY
October 31,1980


Source: Soundboard (monitor mix) > Sony TC-D5 > cassette (2nd gen)
        Taped by Happy Jack and friend
Transfer: Cassette > Nakamichi CD1 > Sony PCM-M10 > wav 24/96
Lineage: wav 24/96 > Adobe Audition 3.0.1 > iZotope RX4 Advanced > iZotope 5 Advanced >
         iZotope RX4 Advanced > wav 16/44.1 > CD Wave > TLH > Flac 16




Set II (partial)

01   Brown Eyed Women >
02   Looks Like Rain >
03   Deal


Set III

01   Dont Ease Me In
02   Lost Sailor >
03   Saint Of Circumstance >
04   Franklins Tower >
05   Drums >
06   Space
07   Fire On The Mountain >
08   Not Fade Away >
09   Stella Blue >
10   Goin' Down The Road Feeling Bad >
11   Good Lovin'

encore

[MISSING]Uncle John's Band



Comments:

- Unfortunately the master was stolen some years ago.


Notes:

- DC offset removed.
- A substantial number of pops removed, these were caused by a loose jack plug.
- Quite a few small dropouts have been repaired.
- All tracks have been pitch corrected.
- Some level adjustments have been made
- Some noise reduction has been applied

The following patches have been made using Jim Wise's recording shnid 132278.

- Brown Eyed Women - first 38.7 seconds
- Deal - 3:31-3:32
- Franklin's Tower - 5:35-5:49, 6:25-6:29
- Drums - 2:43-end
- Space - start-4:00
- Fire On The Mountain - 1:19-1:19.5
- GDTRFB - 1:31-1:35
- Good Lovin' - 2:25-2:56



Thanks to Jim Wise for the patch source

Thanks to Jack for lending me his tape.



transferred, edited and mastered
SIRMick
February 2017


shntool output:

    length     expanded size    cdr  WAVE problems  fmt   ratio  filename
     5:14.21       55439036 B   ---   --   ---xx   flac  0.5692  gd1980-10-31s2t01.flac
     6:55.31       73278956 B   ---   --   ---xx   flac  0.5490  gd1980-10-31s2t02.flac
     6:29.28       68685500 B   ---   --   ---xx   flac  0.5742  gd1980-10-31s2t03.flac
     3:41.70       39149084 B   ---   --   ---xx   flac  0.5858  gd1980-10-31s3t01.flac
     6:08.41       65011676 B   ---   --   ---xx   flac  0.5726  gd1980-10-31s3t02.flac
     6:33.09       69346412 B   ---   --   ---xx   flac  0.5831  gd1980-10-31s3t03.flac
     9:02.38       95698220 B   ---   --   ---xx   flac  0.5882  gd1980-10-31s3t04.flac
    12:24.09      131262812 B   ---   --   ---xx   flac  0.5588  gd1980-10-31s3t05.flac
     4:40.02       49396748 B   ---   --   ---xx   flac  0.5499  gd1980-10-31s3t06.flac
     9:49.36      103984316 B   ---   --   ---xx   flac  0.5379  gd1980-10-31s3t07.flac
     6:40.32       70635308 B   ---   --   ---xx   flac  0.5420  gd1980-10-31s3t08.flac
     9:34.58      101390060 B   ---   --   ---xx   flac  0.5221  gd1980-10-31s3t09.flac
     6:13.46       65905436 B   ---   --   ---xx   flac  0.5300  gd1980-10-31s3t10.flac
     6:40.38       70649420 B   ---   --   ---xx   flac  0.5427  gd1980-10-31s3t11.flac
   100:08.09     1059832984 B                            0.5558  (14 files)


Show Checksums
ffp
gd1980-10-31s2t01.flac:875816a46c1d99d4ed4b337cbc56486d
gd1980-10-31s2t02.flac:3365945bde45ac41f9e6704262a74ad4
gd1980-10-31s2t03.flac:be582f917bf67139326adc1f81445b9d
gd1980-10-31s3t01.flac:781f5a91eb1c52ed661c2ce0d08801c0
gd1980-10-31s3t02.flac:a7ddc539657f46dbe5a149aeff99b1a2
gd1980-10-31s3t03.flac:b1dd030c10928faa98ecdabb5d9c3245
gd1980-10-31s3t04.flac:5758293da20dca34f887fdd3552faa86
gd1980-10-31s3t05.flac:6cc362979f090b7d65ee5920c926a339
gd1980-10-31s3t06.flac:97d5db9b389211ed4df6042a9a28d21c
gd1980-10-31s3t07.flac:da4721add27151fedb59431a34640e81
gd1980-10-31s3t08.flac:eef99d8f942c2eca6ef55dbb50d0706a
gd1980-10-31s3t09.flac:5c82bcce209488d798fdf55d49b5a00e
gd1980-10-31s3t10.flac:f9722926d5293de2c2f01bf96dea3f7e
gd1980-10-31s3t11.flac:ec6b6eaeb96311e52a28df448ddd82ab
flac-md5
3d2ccadabcb7ca686f9109aea73c03d0 *gd1980-10-31s2t01.flac
db3900c89c5c5d71b12b759ae3890dda *gd1980-10-31s2t02.flac
32ac8143e94bb4389c50d1791fc17d0d *gd1980-10-31s2t03.flac
81a6c55f08dc99074c24a0de1b5edd21 *gd1980-10-31s3t01.flac
e3428d4a742bc48da39e73b5a00dffe4 *gd1980-10-31s3t02.flac
8ae2fa5020bacd9bcd0ac25b64a14592 *gd1980-10-31s3t03.flac
a2525c5e65c02aa17297e62b673e9793 *gd1980-10-31s3t04.flac
68526f976b2470479adc983f995fc3db *gd1980-10-31s3t05.flac
e5d0ab77fba62564c67b76563ffadcce *gd1980-10-31s3t06.flac
6e13f3b07c885b2023417f5111dd95a8 *gd1980-10-31s3t07.flac
fc744da46fe8b55d8546958cebe17cae *gd1980-10-31s3t08.flac
33882bfbe05087c274c43650e6534806 *gd1980-10-31s3t09.flac
4ea9269f8a5a5dffe489bb48cbfb4ce0 *gd1980-10-31s3t10.flac
830db2184b0752d80aaa76d4ea8b410f *gd1980-10-31s3t11.flac

Comments
Add Comment
Other Sources (comments)
Recording by Jim Wise:... (2) Source: Acoustic:... (4) flac16; Acoustic:... (1) flac16; Recording... (0) flac16; Recording... (0) flac16; Loge Dead... (0) flac16; 3 Source... (0) flac24; Partial... (0) flac16/48kHz;... (0) flac24; Cassette... (0) flac24; Updated... (3) flac16; Updated... (3) flac24; Source:... (0) flac16; Source:... (0) flac16; Source Info:... (0)
Date User Comment