Browse Collections Artists Sources   Search Dates

Add Show    List Management    Help


Grateful Dead 10/31/80
Radio City Music Hall, New York, NY
Comments Add Comment    Source Collectors    Add to Collection    Add to Want List    History
Source # 137840 Other Sources
Entered by Matt Vernon
Checksums ffp , flac-md5
Disc Counts 0 / 0
Media Size
Uncompressed: 3.22 GB (3460677736 bytes)
Date Circulated
Date Added
02/17/2017
02/17/2017
Source Summary flac24; Source: Soundboard (monitor mix) > Sony TC-D5 > cassette (2nd gen); Taped by Happy Jack and friend; Transfer: Cassette > Nakamichi CD1 > Sony PCM-M10 > wav 24/96; Lineage: wav 24/96 > Adobe Audition 3.0.1 > iZotope RX4 Advanced > iZotope 5 Advanced > CD Wave > TLH > Flac 24; transferred, edited and mastered SIRMick 
  Archive
Source Information - Download Text | Download Zip
Grateful Dead
Radio City Music Hall
New York City, NY
October 31,1980


Source: Soundboard (monitor mix) > Sony TC-D5 > cassette (2nd gen)
        Taped by Happy Jack and friend
Transfer: Cassette > Nakamichi CD1 > Sony PCM-M10 > wav 24/96
Lineage: wav 24/96 > Adobe Audition 3.0.1 > iZotope RX4 Advanced > iZotope 5 Advanced >
         CD Wave > TLH > Flac 24




Set II (partial)

01   Brown Eyed Women >
02   Looks Like Rain >
03   Deal


Set III

01   Dont Ease Me In
02   Lost Sailor >
03   Saint Of Circumstance >
04   Franklins Tower >
05   Drums >
06   Space
07   Fire On The Mountain >
08   Not Fade Away >
09   Stella Blue >
10   Goin' Down The Road Feeling Bad >
11   Good Lovin'

encore

[MISSING]Uncle John's Band



Comments:

- Unfortunately the master was stolen some years ago.


Notes:

- DC offset removed.
- A substantial number of pops removed, these were caused by a loose jack plug.
- Quite a few small dropouts have been repaired.
- All tracks have been pitch corrected.
- Some level adjustments have been made
- Some noise reduction has been applied

The following patches have been made using Jim Wise's recording shnid 132278.

- Brown Eyed Women - first 38.7 seconds
- Deal - 3:31-3:32
- Franklin's Tower - 5:35-5:49, 6:25-6:29
- Drums - 2:43-end
- Space - start-4:00
- Fire On The Mountain - 1:19-1:19.5
- GDTRFB - 1:31-1:35
- Good Lovin' - 2:25-2:56



Thanks to Jim Wise for the patch source

Thanks to Jack for lending me his tape.



transferred, edited and mastered
SIRMick
February 2017


shntool output:

    length     expanded size    cdr  WAVE problems  fmt   ratio  filename
     5:14.280     181025324 B   cxx   --   ---xx   flac  0.6648  gd1980-10-31s2t01.flac
     6:55.413     239278124 B   cxx   --   ---xx   flac  0.6572  gd1980-10-31s2t02.flac
     6:29.373     224279084 B   cxx   --   ---xx   flac  0.6689  gd1980-10-31s2t03.flac
     3:41.933     127833644 B   cxx   --   ---xx   flac  0.6774  gd1980-10-31s3t01.flac
     6:08.547     212282924 B   cxx   --   ---xx   flac  0.6705  gd1980-10-31s3t02.flac
     6:33.120     226437164 B   cxx   --   ---xx   flac  0.6748  gd1980-10-31s3t03.flac
     9:02.507     312483884 B   cxx   --   ---xx   flac  0.6765  gd1980-10-31s3t04.flac
    12:24.120     428613164 B   cxx   --   ---xx   flac  0.6588  gd1980-10-31s3t05.flac
     4:40.027     161295404 B   cxx   --   ---xx   flac  0.6620  gd1980-10-31s3t06.flac
     9:49.480     339540524 B   cxx   --   ---xx   flac  0.6491  gd1980-10-31s3t07.flac
     6:40.427     230645804 B   cxx   --   ---xx   flac  0.6495  gd1980-10-31s3t08.flac
     9:34.773     331069484 B   cxx   --   ---xx   flac  0.6417  gd1980-10-31s3t09.flac
     6:13.613     215201324 B   cxx   --   ---xx   flac  0.6447  gd1980-10-31s3t10.flac
     6:40.507     230691884 B   cxx   --   ---xx   flac  0.6498  gd1980-10-31s3t11.flac
   100:08.120    3460677736 B                            0.6592  (14 files)


Show Checksums
ffp
gd1980-10-31s2t01.flac:37725a05d2e7150796165f54cd08d361
gd1980-10-31s2t02.flac:cabac1bf5efd92d242db4c61a9363887
gd1980-10-31s2t03.flac:3492591bb355de6e3024eaa2877316bb
gd1980-10-31s3t01.flac:54b1c3f33aaf9b23281177f10029377a
gd1980-10-31s3t02.flac:94f9c33aceab5924fe3cee85927a31c2
gd1980-10-31s3t03.flac:538c26fba66c2494a077a224bb518c61
gd1980-10-31s3t04.flac:3bea069e9556808aaad0b73a6a49256a
gd1980-10-31s3t05.flac:f5c6598d36abac4553b263af6085641e
gd1980-10-31s3t06.flac:d672eea128a9957c8d099ac6e2e7f22c
gd1980-10-31s3t07.flac:686e076510b169503e7eba4ef0d8d20e
gd1980-10-31s3t08.flac:8673cd894bb60313c9b117651c83ab57
gd1980-10-31s3t09.flac:33a92752dd8d9f17e8be6318455d9ccf
gd1980-10-31s3t10.flac:30a8c69dcd291378e48689de54a5ecc8
gd1980-10-31s3t11.flac:1b967a10983232b3a6c2ab2a44c816e2
flac-md5
df4d9a146f4e2bda4d34deb32d25e19d *gd1980-10-31s2t01.flac
30c36b03ae0b112a58ddda083bcb2ad7 *gd1980-10-31s2t02.flac
6247ac2a3257850f5ba0384668ad532b *gd1980-10-31s2t03.flac
03ece37e377f30c9fd6231c5c2df6bf4 *gd1980-10-31s3t01.flac
43ff8b92efcb0a0b77afebe9d929f1c3 *gd1980-10-31s3t02.flac
9dad392d4df927d6e7adce16d85d3e8a *gd1980-10-31s3t03.flac
be11b062fc94de55dda5c7817b734f13 *gd1980-10-31s3t04.flac
dc75733042c67a7b5c863bc7ec0f3b4c *gd1980-10-31s3t05.flac
21271debde6d39b27f07a921f7d39b9b *gd1980-10-31s3t06.flac
f465a8f716ada3a46cabef26ca141d93 *gd1980-10-31s3t07.flac
a06f06bc6aab0a5f25a6a3005cc1590a *gd1980-10-31s3t08.flac
0286e17c4c038f5095f23fdd0dac626c *gd1980-10-31s3t09.flac
400367c9b41c7882994f4413b01e105e *gd1980-10-31s3t10.flac
06a92832c72c50dbb8214d113185d7f2 *gd1980-10-31s3t11.flac

Comments
Add Comment
Other Sources (comments)
Recording by Jim Wise:... (2) Source: Acoustic:... (4) flac16; Acoustic:... (1) flac16; Recording... (0) flac16; Recording... (0) flac16; Loge Dead... (0) flac16; 3 Source... (0) flac24; Partial... (0) flac16/48kHz;... (0) flac24; Cassette... (0) flac24; Updated... (3) flac16; Updated... (3) flac16; Source:... (0) flac16; Source:... (0) flac16; Source Info:... (0)
Date User Comment