Browse Collections Artists Sources   Search Dates

Add Show    List Management    Help


Garcia 11/07/91
Capital Centre, Landover, MD
Comments Add Comment    Source Collectors    Add to Collection    Add to Want List    History
Source # 137841 Other Sources
Entered by Joe Jupille
Checksums Garcia1991-11-07.ffp , Garcia1991-11-07.md5
Disc Counts 0 / 0
Media Size
Uncompressed: 1.49 GB (1602780908 bytes)
Date Circulated
Date Added
02/18/2017
02/18/2017
Source Summary JGB; flac1648; (FOB) Schoeps MK4s > Dat (Panasonic SV-255/48k) edited and mastered SIRMick. 
Source Information - Download Text | Download Zip
Garcia 11/07/91
Capital Centre,
Landover, MD

Source: (FOB) Schoeps MK4s > Dat (Panasonic SV-255/48k)
Transfer : Dat (Sony PCM-R500) > Sound Devices 744T > WAV
Lineage: wav > Adobe Audition 3.0.1 > iZotope RX4 Advanced > iZotope Ozone 5 Advanced >
         CD Wave > TLH > Flac16



Set I

01   tuning
02   How Sweet It Is (To Be Loved By You)
03   They Love Each Other
04   tuning
05   Forever Young
06   Let It Rock
07   Lay Down Sally
08   And It Stoned Me
09   Let's Spend The Night Together


Set II

01   tuning
02   Bright Side Of The Road
03   Shining Star
04   Tore Up Over You
05   Rubin (Rueben) And Cherise
06   Like A Road
07   Ain't No Bread In The Breadbox
08   Tangled Up In Blue




Jerry Garcia - guitar, vocals
John Kahn - bass
Melvin Seals - keyboards
David Kemper - drums
Jaclyn LaBranch - backing vocals
Gloria Jones - backing vocals




Comments:

I hear a Be-Bop-A-Lula tease during Tore Up around 5:04.



Thanks to Charlie Miller for the transfer and passing this source to me.


edited and mastered
SIRMick
February 2017


shntool output:

    length     expanded size    cdr  WAVE problems  fmt   ratio  filename
     1:12.613      13941804 B   cxx   --   ---xx   flac  0.4596  jgb1991-11-07s1t01.flac
     7:14.040      83335724 B   cxx   --   ---xx   flac  0.5244  jgb1991-11-07s1t02.flac
     7:08.360      82245164 B   cxx   --   ---xx   flac  0.5430  jgb1991-11-07s1t03.flac
     3:05.307      35578924 B   cxx   --   ---xx   flac  0.4096  jgb1991-11-07s1t04.flac
    11:01.467     127001644 B   cxx   --   ---xx   flac  0.4882  jgb1991-11-07s1t05.flac
     7:50.147      90268204 B   cxx   --   ---xx   flac  0.5502  jgb1991-11-07s1t06.flac
    10:22.840     119585324 B   cxx   --   ---xx   flac  0.5196  jgb1991-11-07s1t07.flac
     7:18.720      84234284 B   cxx   --   ---xx   flac  0.5355  jgb1991-11-07s1t08.flac
    10:56.587     126064684 B   cxx   --   ---xx   flac  0.5752  jgb1991-11-07s1t09.flac
     1:29.187      17123884 B   cxx   --   ---xx   flac  0.3530  jgb1991-11-07s2t01.flac
     6:22.880      73513004 B   cxx   --   ---xx   flac  0.4897  jgb1991-11-07s2t02.flac
    11:34.880     133417004 B   cxx   --   ---xx   flac  0.4813  jgb1991-11-07s2t03.flac
     9:25.173     108513324 B   cxx   --   ---xx   flac  0.5174  jgb1991-11-07s2t04.flac
    10:13.147     117724204 B   cxx   --   ---xx   flac  0.5092  jgb1991-11-07s2t05.flac
    11:42.840     134945324 B   cxx   --   ---xx   flac  0.4427  jgb1991-11-07s2t06.flac
     9:03.880     104425004 B   cxx   --   ---xx   flac  0.5148  jgb1991-11-07s2t07.flac
    13:05.747     150863404 B   cxx   --   ---xx   flac  0.5210  jgb1991-11-07s2t08.flac
   139:07.813    1602780908 B                            0.5086  (17 files)
Show Checksums
Garcia1991-11-07.ffp
jgb1991-11-07s1t01.flac:e4acc6682dce7efb3fd354f567306b5a
jgb1991-11-07s1t02.flac:603f0eb1df2df28ee9b78a256761a276
jgb1991-11-07s1t03.flac:4d66035d344827cf9d5c816af7fac5dd
jgb1991-11-07s1t04.flac:b842c248005ae6f8d3799b8f2de8e10c
jgb1991-11-07s1t05.flac:243a21823a078f02e83087277edbccb9
jgb1991-11-07s1t06.flac:d94cf0ec03ae3e0f55525f3362f29043
jgb1991-11-07s1t07.flac:acf3effebc9d76194b0e1d1cf8087772
jgb1991-11-07s1t08.flac:5b04dc15dc66e66f83fd38538dc7787f
jgb1991-11-07s1t09.flac:2daea24144a01e3df899c7aa6b6eee85
jgb1991-11-07s2t01.flac:c0621a825d666878c022fe97b359f09b
jgb1991-11-07s2t02.flac:cac95140eed8cd868a627b0279e0f6cb
jgb1991-11-07s2t03.flac:b64a3c64677c3072d651cf802c335bb0
jgb1991-11-07s2t04.flac:94f678cd37b69bbfa398d494571980cd
jgb1991-11-07s2t05.flac:b678997a9956620320bcf11bfb16aaef
jgb1991-11-07s2t06.flac:8fa93c1e8bbdd9f79f4d6289972749ce
jgb1991-11-07s2t07.flac:b413bad06af79a307d44b3a419bf54b6
jgb1991-11-07s2t08.flac:387d8497a6890a744a31baaf0e496aee
Garcia1991-11-07.md5
e58878b2c17ecde27b65c06dd1de9862 *jgb1991-11-07s1t01.flac
e44ee7274e6fd79484a970c4bf7f018d *jgb1991-11-07s1t02.flac
112b8db3f4f6a56b24e29fe96493bdda *jgb1991-11-07s1t03.flac
42232fce36650b7f14946823120f1283 *jgb1991-11-07s1t04.flac
7e797d3ece0a37875eef25afda71ec02 *jgb1991-11-07s1t05.flac
726b35da0f6d7ede93a5aa8eb3acfa25 *jgb1991-11-07s1t06.flac
7eec16dad9cc988216cafd9fcf25c276 *jgb1991-11-07s1t07.flac
c30749b5abf789c1db83c9aad7eaa199 *jgb1991-11-07s1t08.flac
475459dfaa5115f3d4e9e7d0fd88886c *jgb1991-11-07s1t09.flac
ded23922e3cb29d65113b9101e52796c *jgb1991-11-07s2t01.flac
23437b4f9e2065d5ba7923a0e4e61ea9 *jgb1991-11-07s2t02.flac
15949e11dca048e3abf46e6b46b3e7bf *jgb1991-11-07s2t03.flac
e878aab2ba23b95d8e5af0cc83e5c665 *jgb1991-11-07s2t04.flac
a4ac39fcac9217458cd5ab47207ef540 *jgb1991-11-07s2t05.flac
5440e70b223e21540d33da195c153fb2 *jgb1991-11-07s2t06.flac
270672c469d7f36ba15d815ce2b2ff13 *jgb1991-11-07s2t07.flac
b11737309ddd810324bf0afbca13418b *jgb1991-11-07s2t08.flac

Comments
Add Comment
Other Sources (comments)
Jerry Garcia Band: AUD... (1) JGB (16bit/48kHz):... (1)
Date User Comment